Бабадук / The Babadook (Дженнифер Кент) [2014 г., ужасы, триллер, драма, BDRip-AVC]

Ответить на тему
 

Azizbuhhh ®

Стаж: 4 года 11 месяцев

Сообщений: 11

Симпатии: 1

Бабадук / The Babadook- Год выпуска: 2014
Страна: Австралия
Жанр: ужасы, триллер, драма
Продолжительность: 01:33:46
Перевод: Любительский двухголосый [Сладкая парочка] / Авторский одноголосый [Doctor_Joker]-Режиссер: Дженнифер Кент-В ролях: Эсси Дэвис, Ной Вайсман, Хейли МакЭлхинни, Дэниэл Хеншэлл, Барбара Уэст, Бенжамин Винспер, Тиффани Линдолл-Найт, , Крэйг Бехенна, Кармел Джонсон-Описание: Овдовевшую женщину с шестилетним сыном начинает преследовать монстр Бабадук — герой из рассказов-ужасов. Поначалу нервное и странное поведение матери и сына кажется объяснимым для окружающих — без мужской поддержки прожить им сложно. Но вскоре открываются истинные причины, ведь по ночам к ним является Бабадук, чтобы напугать до смерти…-Доп. информация: Сценарий - Дженнифер Кент
Продюсер - Кристина Кейтон, Кристиан Мольере, Пит Бест, ...
Оператор - Радослав Ладчук
Композитор - Джед Курзель
Художник - Алекс Холмс, Карен Хэннафорд, Хезер Уоллес, ...
Монтаж - Саймон Нджу-Качество: BDRip-AVC
Формат: MKV
Видео кодек: AVC
Аудио кодек: AC3
Видео: 2043 Кбит/с, 1024х432
Аудио #1: (АС3, 2 ch, 192 Кбит/с - ЛД) / [Сладкая парочка]
Аудио #2: (АС3, 6 ch, 448 Кбит/с - АО) / [Doctor_Joker]
Аудио #3: (АС3, 6 ch, 448 Кбит/с) / ENG

Media Info

General
Unique ID : 236460436414343665571775740280311932054 (0xB1E49F9EB34D0B51B16F45F156A06496)
Format : Matroska
Format version : Version 1
File size : 2.05 GiB
Duration : 1h 33mn
Overall bit rate : 3 133 Kbps
Encoded date : UTC 2014-12-08 04:43:24
Writing application : mkvmerge v2.1.0 ('Another Place To Fall') built on Aug 19 2007 13:40:07
Writing library : libebml v0.7.7 + libmatroska v0.8.1
Video
ID : 1
Format : AVC
Format/Info : Advanced Video Codec
Format profile : [email protected]
Format settings, CABAC : Yes
Format settings, ReFrames : 8 frames
Codec ID : V_MPEG4/ISO/AVC
Duration : 1h 33mn
Bit rate : 2 043 Kbps
Width : 1 024 pixels
Height : 432 pixels
Display aspect ratio : 2.40:1
Frame rate mode : Constant
Frame rate : 23.976 fps
Color space : YUV
Chroma subsampling : 4:2:0
Bit depth : 8 bits
Scan type : Progressive
Bits/(Pixel*Frame) : 0.193
Stream size : 1.30 GiB (63%)
Writing library : x264 core 125 r2200 999b753
Encoding settings : cabac=1 / ref=8 / deblock=1:-3:-3 / analyse=0x3:0x113 / me=umh / subme=10 / psy=1 / psy_rd=1.00:0.00 / mixed_ref=1 / me_range=32 / chroma_me=1 / trellis=2 / 8x8dct=1 / cqm=0 / deadzone=21,11 / fast_pskip=0 / chroma_qp_offset=-2 / threads=6 / lookahead_threads=1 / sliced_threads=0 / nr=0 / decimate=0 / interlaced=0 / bluray_compat=0 / constrained_intra=0 / bframes=8 / b_pyramid=2 / b_adapt=2 / b_bias=0 / direct=3 / weightb=1 / open_gop=0 / weightp=2 / keyint=240 / keyint_min=23 / scenecut=40 / intra_refresh=0 / rc=2pass / mbtree=0 / bitrate=2043 / ratetol=1.0 / qcomp=0.60 / qpmin=0 / qpmax=69 / qpstep=4 / cplxblur=20.0 / qblur=0.5 / ip_ratio=1.40 / pb_ratio=1.30 / aq=1:1.10
Language : English
Default : Yes
Forced : No
Audio #1
ID : 2
Format : AC-3
Format/Info : Audio Coding 3
Mode extension : CM (complete main)
Format settings, Endianness : Big
Codec ID : A_AC3
Duration : 1h 33mn
Bit rate mode : Constant
Bit rate : 192 Kbps
Channel(s) : 2 channels
Channel positions : Front: L R
Sampling rate : 48.0 KHz
Bit depth : 16 bits
Compression mode : Lossy
Stream size : 129 MiB (6%)
Title : Любительский двухголосый
Language : Russian
Default : Yes
Forced : No
Audio #2
ID : 3
Format : AC-3
Format/Info : Audio Coding 3
Mode extension : CM (complete main)
Format settings, Endianness : Big
Codec ID : A_AC3
Duration : 1h 33mn
Bit rate mode : Constant
Bit rate : 448 Kbps
Channel(s) : 6 channels
Channel positions : Front: L C R, Side: L R, LFE
Sampling rate : 48.0 KHz
Bit depth : 16 bits
Compression mode : Lossy
Stream size : 300 MiB (14%)
Title : Авторский одноголосый (Матвеев (Doctor Joker))
Language : Russian
Default : No
Forced : No
Audio #3
ID : 4
Format : AC-3
Format/Info : Audio Coding 3
Mode extension : CM (complete main)
Format settings, Endianness : Big
Codec ID : A_AC3
Duration : 1h 33mn
Bit rate mode : Constant
Bit rate : 448 Kbps
Channel(s) : 6 channels
Channel positions : Front: L C R, Side: L R, LFE
Sampling rate : 48.0 KHz
Bit depth : 16 bits
Compression mode : Lossy
Stream size : 300 MiB (14%)
Title : Оригинал
Language : English
Default : No
Forced : No
Text #1
ID : 5
Format : UTF-8
Codec ID : S_TEXT/UTF8
Codec ID/Info : UTF-8 Plain Text
Title : Русские (MartinaG)
Language : Russian
Default : Yes
Forced : No
Text #2
ID : 6
Format : UTF-8
Codec ID : S_TEXT/UTF8
Codec ID/Info : UTF-8 Plain Text
Title : Английские (Full)
Language : English
Default : No
Forced : No
Text #3
ID : 7
Format : UTF-8
Codec ID : S_TEXT/UTF8
Codec ID/Info : UTF-8 Plain Text
Title : Английские (SDH)
Language : English
Default : No
Forced : No
Menu
00:00:00.000 : en:Chapter 01
00:03:13.526 : en:Chapter 02
00:10:42.308 : en:Chapter 03
00:17:40.309 : en:Chapter 04
00:24:08.655 : en:Chapter 05
00:32:51.803 : en:Chapter 06
00:39:23.778 : en:Chapter 07
00:43:43.245 : en:Chapter 08
00:46:02.134 : en:Chapter 09
00:53:54.397 : en:Chapter 10
01:01:22.720 : en:Chapter 11
01:08:38.322 : en:Chapter 12
01:14:05.983 : en:Chapter 13
01:18:38.922 : en:Chapter 14
01:24:58.259 : en:Chapter 15
01:30:11.739 : en:Chapter 16

Скриншоты



Создавать темы 15-Дек-2014 18:29

[Профиль]  [ЛС] 

Топик был перенесен из форума Фильмы за 2014 в форум HD-AVC
Иви

Создавать темы 17-Дек-2014 11:59

 
Показать сообщения:    
Ответить на тему

Текущее время: 23-Сен 19:47

Часовой пояс: UTC + 5



Вы не можете начинать темы
Вы не можете отвечать на сообщения
Вы не можете редактировать свои сообщения
Вы не можете удалять свои сообщения
Вы не можете голосовать в опросах
Вы не можете прикреплять файлы к сообщениям
Вы не можете скачивать файлы