Санта Лапушки / Santa Claws (Гленн Миллер) [2014 г., фэнтези, семейный, HDRip]

Ответить на тему
 

igor1968 ®

Стаж: 5 лет 7 месяцев

Сообщений: 366

Симпатии: 197

Санта Лапушки / Santa Claws
Год выпуска: 2014
Страна:
Жанр: фэнтези, семейный, ...
Продолжительность: 01:26:08.793
Перевод: Любительский (одноголосый)
Режиссер: Гленн Миллер
В ролях: Эзра Джеймс Колберт
Никола Ламбо
Джон П. Фаулер
Джордан Биельский
Лорен Е. Худ
Quinn Ljoka
Marguerite Insolia
Дилан Вокс
Джеймс Конделик
Ивэн Боймел
...-премьера 4 ноября 2014-Описание: В детстве Джулия разуверилась в Рождестве и по сей день не даёт своему сыну отмечать его, мол это придумали производители игрушек и колы, чтобы денег заработать. Трое отважных котят, малыш Томми, чокнутый сосед мистер Брэмбл и сам Санта докажут Джулии, что она ошибалась.-Для детей от 0 до 7 лет. Котята такие милые. Ненормативная лексика отсутствует.
- -

MediaInfo

General
Complete name : Santa.Claws.2014.HDRip.VOzamez.avi
Format : AVI
Format/Info : Audio Video Interleave
File size : 1 010 MiB
Duration : 1h 26mn
Overall bit rate : 1 638 Kbps
Writing application : VirtualDubMod 1.5.10.2 (build 2542/release)
Writing library : VirtualDubMod build 2542/release
Video
ID : 0
Format : MPEG-4 Visual
Format profile : Advanced [email protected]
Format settings, BVOP : Yes
Format settings, QPel : No
Format settings, GMC : No warppoints
Format settings, Matrix : Default (H.263)
Codec ID : XVID
Codec ID/Hint : XviD
Duration : 1h 26mn
Bit rate : 1 501 Kbps
Width : 720 pixels
Height : 400 pixels
Display aspect ratio : 16:9
Frame rate : 23.976 fps
Color space : YUV
Chroma subsampling : 4:2:0
Bit depth : 8 bits
Scan type : Progressive
Compression mode : Lossy
Bits/(Pixel*Frame) : 0.217
Stream size : 925 MiB (92%)
Writing library : XviD 1.2.1 (UTC 2008-12-04)
Audio
ID : 1
Format : MPEG Audio
Format version : Version 1
Format profile : Layer 3
Mode : Joint stereo
Codec ID : 55
Codec ID/Hint : MP3
Duration : 1h 26mn
Bit rate mode : Constant
Bit rate : 128 Kbps
Channel count : 2 channels
Sampling rate : 48.0 KHz
Compression mode : Lossy
Stream size : 78.9 MiB (8%)
Alignment : Aligned on interleaves
Interleave, duration : 42 ms (1.00 video frame)
Interleave, preload duration : 504 ms
-Качество: HDRip
Формат: AVI
Видео кодек: XviD
Аудио кодек: MP3
Видео: 720x400 (1.80:1), 23.976 fps, XviD MPEG-4 ~1500 kbps avg, 0.22 bit/pixel
Аудио: 48 kHz, MPEG Layer 3, 2 ch, ~128.00 kbps avg
-

Скриншоты






Создавать темы 18-Дек-2014 13:18

[Профиль]  [ЛС] 
Показать сообщения:    
Ответить на тему

Текущее время: 23-Окт 01:45

Часовой пояс: UTC + 5



Вы не можете начинать темы
Вы не можете отвечать на сообщения
Вы не можете редактировать свои сообщения
Вы не можете удалять свои сообщения
Вы не можете голосовать в опросах
Вы не можете прикреплять файлы к сообщениям
Вы не можете скачивать файлы