Наруто: Ураганные хроники 392 / Naruto Shippuuden 392 (Датэ Хаято) [2014 г., Приключения, комедия, боевые искусства, сёнэн, HDTVRip]

Ответить на тему
 

sharof1 ®

Стаж: 4 года 5 месяцев

Сообщений: 26

Наруто: Ураганные хроники 392 / Naruto Shippuuden 392
Год выпуска: 2014
Страна: Япония
Жанр: Приключения, комедия, боевые искусства, сёнэн
Продолжительность: 00:23:10
Перевод: Любительский (одноголосый)[RainDeath]
Режиссер: Датэ Хаято
Описание: Второе пришествие популярного аниме-сериала «Наруто».
Это аниме покроет вторую часть сюжетной линии манги, после событий в конце памятной арки о попытки вернуть Саске в деревню Скрытого Листа.
История вращается в основном вокруг новых приключений Узумаки Наруто, Харуно Сакуры и их поиска Учиха Саске после того как тот покинул родную деревню чтобы обрести силу у Орочимару. Сюжет также покажет большую ативность, чем прежде Акатсуки в продвижении их плана по захвату всех «хвостатых» монстров.
Качество: HDTVRip
Формат: MKV
Видео кодек: DivX
Аудио кодек: MP3
Видео: MPEG4 Video (H264) 1280x720 23.81fps [Video]
Аудио: MP3 44100Hz stereo 128kbps [Audio]

MediaInfo

Video
ID : 1
Format : AVC
Format/Info : Advanced Video Codec
Format profile : [email protected]
Format settings, CABAC : Yes
Format settings, ReFrames : 6 frames
Codec ID : V_MPEG4/ISO/AVC
Duration : 23mn 9s
Bit rate : 1 776 Kbps
Width : 1 280 pixels
Height : 720 pixels
Display aspect ratio : 16:9
Frame rate mode : Constant
Frame rate : 23.810 fps
Original frame rate : 23.976 fps
Color space : YUV
Chroma subsampling : 4:2:0
Bit depth : 8 bits
Scan type : Progressive
Bits/(Pixel*Frame) : 0.081
Stream size : 288 MiB (91%)
Writing library : x264 core 120 r2120 0c7dab9
Forced : Yes
Audio
ID : 2
Format : MPEG Audio
Format version : Version 1
Format profile : Layer 3
Mode : Joint stereo
Codec ID : A_MPEG/L3
Codec ID/Hint : MP3
Duration : 23mn 9s
Bit rate mode : Constant
Bit rate : 128 Kbps
Channel(s) : 2 channels
Sampling rate : 44.1 KHz
Compression mode : Lossy
Stream size : 21.2 MiB (7%)
Default : Yes
Forced : No

Скриншоты





Создавать темы 18-Дек-2014 21:31

[Профиль]  [ЛС] 

sharof1 ®

Стаж: 4 года 5 месяцев

Сообщений: 26

раздача скоро

Создавать темы 18-Дек-2014 21:53

[Профиль]  [ЛС] 

sharof1 ®

Стаж: 4 года 5 месяцев

Сообщений: 26

Создавать темы 25-Мар-2015 21:52

[Профиль]  [ЛС] 
Показать сообщения:    
Ответить на тему

Текущее время: 19-Окт 05:00

Часовой пояс: UTC + 5



Вы не можете начинать темы
Вы не можете отвечать на сообщения
Вы не можете редактировать свои сообщения
Вы не можете удалять свои сообщения
Вы не можете голосовать в опросах
Вы не можете прикреплять файлы к сообщениям
Вы не можете скачивать файлы