Кулак легенды: Возвращение Чен Жена / Jing mo fung wan: Chen Zhen (Вэй Кеунг Лау) [2010 г., боевик, драма, история, DVDRip]

Страницы :  1, 2  След.

Ответить на тему
 

nigga22480 ®

Стаж: 7 лет 4 месяца

Сообщений: 211

Симпатии: 13

Кулак легенды: Возвращение Чен Жена / Jing mo fung wan: Chen Zhen Год выпуска: 2010
Страна: Гонконг, Китай
Жанр: боевик, драма, история
Продолжительность: 01:44:40
Перевод: Любительский (одноголосый)
Режиссер: Вэй Кеунг Лау

В ролях: Донни Ен, Шу Ци, Ясуаки Курата, Энтони Вонг Чау-Санг, Шон Юе Рю Кошат, Карл Игнэкзэк, Хуанг Во, Джиэджия Чен, Сайан Го

Описание: Спустя семь лет после смерти Чен Чжена, который, как выяснилось был убит во время войны, в Шанхай приезжает таинственный незнакомец из-за границы и оказывает поддержку местному боссу мафии. Этот человек и есть замаскированный Чен Чжен, который намеревается проникнуть в круги власти, и нанести свой удар если Шанхай заключит союз с японцами...

Качество: DVDRip
Формат: AVI
Видео кодек: XviD
Аудио кодек: MP3

Медиа инфо

Legend.Of.The.Fist.Return.Of.Chen.Zhen.2010.DVDRip.XviD.avi
General
Complete name :Legend.Of.The.Fist.Return.Of.Chen.Zhen.2010.DVDRip.XviD.avi
Format : AVI
Format/Info : Audio Video Interleave
File size : 1.36 GiB
Duration : 1h 44mn
Overall bit rate : 1 863 Kbps
Writing application : VirtualDubModRus 1.5.10.2 (build 2542/release)
Writing library : VirtualDubMod build 2542/release
Video #0
ID : 0
Format : MPEG-4 Visual
Format profile : Advanced [email protected]
Format settings, BVOP : Yes
Format settings, QPel : No
Format settings, GMC : No warppoints
Format settings, Matrix : Custom
Muxing mode : Packed bitstream
Codec ID : XVID
Codec ID/Hint : XviD
Duration : 1h 44mn
Bit rate : 1 531 Kbps
Width : 720 pixels
Height : 304 pixels
Display aspect ratio : 2.35:1
Frame rate : 29.970 fps
Color space : YUV
Chroma subsampling : 4:2:0
Bit depth : 8 bits
Scan type : Progressive
Bits/(Pixel*Frame) : 0.233
Stream size : 1.12 GiB (82%)
Writing library : XviD 1.2.1 (UTC 2008-12-04)
Audio #1
ID : 1
Format : MPEG Audio
Format version : Version 1
Format profile : Layer 3
Mode : Joint stereo
Codec ID : 55
Codec ID/Hint : MP3
Duration : 1h 44mn
Bit rate mode : Constant
Bit rate : 320 Kbps
Channel(s) : 2 channels
Sampling rate : 48.0 KHz
Stream size : 240 MiB (17%)
Alignment : Aligned on interleaves
Interleave, duration : 33 ms (1.00 video frame)
Interleave, preload duration : 504 ms

Скриншоты




Последний раз редактировалось: nigga22480 (2010-11-03 07:45), всего редактировалось 2 раз(а)

Создавать темы 02-Ноя-2010 23:29

[Профиль]  [ЛС] 

ziyod

Стаж: 7 лет 6 месяцев

Сообщений: 367

Симпатии: 60

Режиссер: Вэй Кеунг Лау
исправь только...

Создавать темы 03-Ноя-2010 05:56

[Профиль]  [ЛС] 

kayrat84

Стаж: 7 лет 2 месяца

Сообщений: 3

спасибо

Создавать темы 03-Ноя-2010 11:32

[Профиль]  [ЛС] 

mansurjon

Стаж: 7 лет 4 месяца

Сообщений: 103

Симпатии: 3

кому то надо 700мб

Создавать темы 03-Ноя-2010 12:21

[Профиль]  [ЛС] 

batonjon

Стаж: 7 лет 2 месяца

Сообщений: 60

Симпатии: 2

кому то надо 700мб
да мне желатьельно качество DvDRip ay ay az az

Создавать темы 03-Ноя-2010 13:00

[Профиль]  [ЛС] 

lotto

Стаж: 7 лет 8 месяцев

Сообщений: 221

Симпатии: 409

Я так понял это промо версия и хардсабы затерты

Создавать темы 03-Ноя-2010 13:12

[Профиль]  [ЛС] 

JohnnY

Стаж: 7 лет 2 месяца

Сообщений: 25

мляя ОГРОМНОЕ СПАСИБО, люблю такие фильмы, жаль что там сам Джет Ли не снимается (

Создавать темы 03-Ноя-2010 21:03

[Профиль]  [ЛС] 

nigga22480 ®

Стаж: 7 лет 4 месяца

Сообщений: 211

Симпатии: 13

Жет Ли уже постарел, и он тока терь играеть в Голливудском фильме. Донни Ен супер играет роль!!!

Создавать темы 04-Ноя-2010 00:04

[Профиль]  [ЛС] 

uz.toha.ru

Стаж: 7 лет 1 месяц

Сообщений: 44

Nigga22480 ти чо сним рол играл чтоли??? bw Если ты сним не играл аткуда ти знаеш что он супер? ap

_________________
Подпись отключена за нарушение правил форума

Создавать темы 05-Ноя-2010 11:21

[Профиль]  [ЛС] 

nigga22480 ®

Стаж: 7 лет 4 месяца

Сообщений: 211

Симпатии: 13

Ты китайский фильмы смотришь? Где Донни Ен играл стал хитовим фильмом, сначала думай что скажешь потом рассуди ок? Например Ип ман и Ип ман 2 там могу фильмографию писать!!!

Создавать темы 05-Ноя-2010 13:48

[Профиль]  [ЛС] 

Chingiz

Стаж: 7 лет

Сообщений: 6

Симпатии: 1

Люди добрые станьте на раздачу

Создавать темы 05-Ноя-2010 14:04

[Профиль]  [ЛС] 

nigga22480 ®

Стаж: 7 лет 4 месяца

Сообщений: 211

Симпатии: 13

Chingiz ты прикалываешься? 24 сидеры сидит какой ещё раздача ;)

Создавать темы 05-Ноя-2010 14:08

[Профиль]  [ЛС] 

AssassiN2

Стаж: 7 лет 7 месяцев

Сообщений: 61

Симпатии: 4

Чуть фантастики много как индийский боевик, а так не очень фильм, Ип Ман лучше чем этот =)

Создавать темы 05-Ноя-2010 15:56

[Профиль]  [ЛС] 

ali_1980

Стаж: 6 лет 10 месяцев

Сообщений: 4

как можно скачать фильм

Создавать темы 06-Ноя-2010 12:10

[Профиль]  [ЛС] 

Топик был перенесен из форума Фильмы за 2010 в форум Азиатские фильмы


victor0778

Создавать темы 16-Янв-2012 13:30

 
Показать сообщения:    
Ответить на тему

Текущее время: 22-Сен 06:04

Часовой пояс: UTC + 5



Вы не можете начинать темы
Вы не можете отвечать на сообщения
Вы не можете редактировать свои сообщения
Вы не можете удалять свои сообщения
Вы не можете голосовать в опросах
Вы не можете прикреплять файлы к сообщениям
Вы не можете скачивать файлы