Последний бриллиант / Le dernier diamant (Эрик Барбье) [2014 г.,драма, криминал, HDRip ] [Официальный звук]

Ответить на тему
 

Babit ®

Стаж: 3 года 11 месяцев

Сообщений: 70

Симпатии: 18

Последний бриллиант / Le dernier diamant
-Год выпуска: 2014
Страна: Франция, Люксембург, Бельгия / Vertigo, Scope Pictures, Bidibul Productions
Жанр: драма, криминал
Продолжительность: 01:48:37
Перевод: Профессиональный многоголосый официальный
Режиссёр: Эрик Барбье-В ролях: Иван Атталь, Беренис Бежо, Жан-Франсуа Стевенен, Антуан Баслер, Жак Списсер, Анни Корди, Мишель Израэль, Шарли Дюпон, Дэниэль Дени, Гене Бервутс-Описание: Бывший заключенный, втирается в доверие к дочери покойного эксперта-ювелира с целью выкрасть «Флорентийца», один из крупнейших в мире бриллиантов. Добившись своего и заменив драгоценность фальшивкой, мошенник передает бриллиант подельникам, которые тотчас же пытаются его убить. Потеряв в одночасье бриллиант и друзей-предателей, герой пытается удержать самое дорогое, что осталось в его жизни — полюбившую его девушку.-Рейтинги: IMDB рейтинг: 6,1/10 (229 голосов)-Качество: HDRip
Формат: AVI
Видео кодек: XviD
Аудио кодек: AC3
Видео: 1720 kb/s, 720x304
Аудио:192 kb/s (2 ch)-

MediaInfo:

General
Complete name : C:\Users\Gigabyte\Downloads\Poslednij.brilliant.2014.P.HDRip.avi
Format : AVI
Format/Info : Audio Video Interleave
Format profile : OpenDML
File size : 1.45 GiB
Duration : 1h 47mn
Overall bit rate : 1 924 Kbps
Writing application : Lavf52.93.0
Video
ID : 0
Format : MPEG-4 Visual
Format profile : Advanced [email protected]
Format settings, BVOP : Yes
Format settings, QPel : No
Format settings, GMC : No warppoints
Format settings, Matrix : Default (MPEG)
Codec ID : XVID
Codec ID/Hint : XviD
Duration : 1h 47mn
Bit rate : 1 720 Kbps
Width : 720 pixels
Height : 304 pixels
Display aspect ratio : 2.35:1
Frame rate : 24.000 fps
Color space : YUV
Chroma subsampling : 4:2:0
Bit depth : 8 bits
Scan type : Progressive
Compression mode : Lossy
Bits/(Pixel*Frame) : 0.327
Stream size : 1.30 GiB (89%)
Writing library : XviD 1.2.1 (UTC 2008-12-04)
Audio
ID : 1
Format : AC-3
Format/Info : Audio Coding 3
Mode extension : CM (complete main)
Format settings, Endianness : Big
Codec ID : 2000
Duration : 1h 47mn
Bit rate mode : Constant
Bit rate : 192 Kbps
Channel count : 2 channels
Channel positions : Front: L R
Sampling rate : 48.0 KHz
Bit depth : 16 bits
Compression mode : Lossy
Stream size : 148 MiB (10%)
Alignment : Aligned on interleaves
Interleave, duration : 32 ms (0.77 video frame)
Interleave, preload duration : 32 ms
-

Скриншоты

Создавать темы 19-Дек-2014 23:16

[Профиль]  [ЛС] 

LoGiTeCh

Стаж: 5 лет 8 месяцев

Сообщений: 19

классный кино спасибо

Создавать темы 19-Дек-2014 23:23

[Профиль]  [ЛС] 

Babit ®

Стаж: 3 года 11 месяцев

Сообщений: 70

Симпатии: 18

valeri-mvv-101 спасибо тебе! за помош! уважуха! браток!

Создавать темы 20-Дек-2014 13:04

[Профиль]  [ЛС] 

Николай Сенчи

Стаж: 6 лет 10 месяцев

Сообщений: 88

Симпатии: 6

Благодарю за раздачу!!

Создавать темы 20-Дек-2014 19:53

[Профиль]  [ЛС] 

Sakar

Стаж: 3 года 10 месяцев

Сообщений: 26

народ, опишитесь пожалуйста

Создавать темы 21-Дек-2014 19:11

[Профиль]  [ЛС] 

nodirbek_uz

Стаж: 6 лет 10 месяцев

Сообщений: 4

film prosto super

Создавать темы 22-Дек-2014 00:18

[Профиль]  [ЛС] 

Babit ®

Стаж: 3 года 11 месяцев

Сообщений: 70

Симпатии: 18

фильм суппер!

Создавать темы 22-Дек-2014 14:23

[Профиль]  [ЛС] 

Sakar

Стаж: 3 года 10 месяцев

Сообщений: 26

вот теперь качну. спасибо за коменты и автору

Создавать темы 22-Дек-2014 17:55

[Профиль]  [ЛС] 

nodir.akramov

Стаж: 5 лет 5 месяцев

Сообщений: 12

отличный фильм!!!

Создавать темы 25-Дек-2014 04:46

[Профиль]  [ЛС] 

conner

Стаж: 4 года 6 месяцев

Сообщений: 56

Симпатии: 7

hghjgghj

Создавать темы 11-Янв-2015 15:20

[Профиль]  [ЛС] 
Показать сообщения:    
Ответить на тему

Текущее время: 25-Сен 09:23

Часовой пояс: UTC + 5



Вы не можете начинать темы
Вы не можете отвечать на сообщения
Вы не можете редактировать свои сообщения
Вы не можете удалять свои сообщения
Вы не можете голосовать в опросах
Вы не можете прикреплять файлы к сообщениям
Вы не можете скачивать файлы