До свидания мама (Светлана Проскурина) [2014 г., драма, DVDRip]

Ответить на тему
 

Старый Дядька ®

Стаж: 5 лет 1 месяц

Сообщений: 566

Симпатии: 400

До свидания мама--«Каждая счастливая семья несчастна по-своему»- Год выпуска: 2014
Страна: Россия
Жанр: драма
Продолжительность: 1:38:19
Перевод: Не требуется-Режиссер: Светлана Проскурина-В ролях: Даумантас Цюнис, Александра Ребенок, Алексей Вертков, Диана Ганцевскайте, Мария Леонова, Яна Терешина-Описание:
Алексей и Анна молодые супруги. Неожиданная встреча Анны с другим мужчиной переворачивает их семейный мир. Любимые становятся чужими, случайный попутчик самым дорогим человеком, а собственный ребенок неудобным препятствием на пути к счастью.-Фильм снят по мотивам пьесы Василия Сигарева «Каренин», поставленной на сцене МХТ имени А. П. Чехова.-Премьера (РФ): 19 июня 2014
Релиз на DVD: 9 декабря 2014, «Lizard Cinema Trade», ...
Возраст: зрителям, достигшим 16 лет-Рейтинг:
 -Качество: DVDRip
Формат: AVI
Видео кодек: XviD
Аудио кодек: AC3-Видео: 1663 Кбит/сек, 720х400 пикселей (16:9), 25,000 кадров/сек
Аудио: 448 Кбит/сек, 6 каналов, 48,0 КГц

Mediainfo

Общее
Полное имя : F:\Фильмы\До свидания мама.2014.O.DVDRip.(1.45).avi
Формат : AVI
Формат/Информация : Audio Video Interleave
Размер файла : 1,46 Гбайт
Продолжительность : 1 ч. 38 м.
Общий поток : 2121 Кбит/сек
Программа кодирования : VirtualDubMod 1.5.10.3 | www.virtualdub-fr.org || (build 2550/release)
Библиотека кодирования : VirtualDubMod build 2550/release
Видео
Идентификатор : 0
Формат : MPEG-4 Visual
Профиль формата : Advanced [email protected]
Параметр BVOP формата : 1
Параметр QPel формата : Нет
Параметр GMC формата : Без точки перехода
Параметр матрицы формата : Выборочная
Идентификатор кодека : XVID
Идентификатор кодека/Подсказка : XviD
Продолжительность : 1 ч. 38 м.
Битрейт : 1663 Кбит/сек
Ширина : 720 пикселей
Высота : 400 пикселей
Соотношение сторон : 16:9
Частота кадров : 25,000 кадров/сек
Цветовое пространство : YUV
Субдискретизация насыщенности : 4:2:0
Битовая глубина : 8 бит
Тип развёртки : Прогрессивная
Метод сжатия : С потерями
Бит/(Пиксели*Кадры) : 0.231
Размер потока : 1,14 Гбайт (78%)
Библиотека кодирования : XviD 73
Аудио
Идентификатор : 1
Формат : AC-3
Формат/Информация : Audio Coding 3
Расширение режима : CM (complete main)
Параметр Endianness формата : Big
Идентификатор кодека : 2000
Продолжительность : 1 ч. 38 м.
Вид битрейта : Постоянный
Битрейт : 448 Кбит/сек
Каналы : 6 каналов
Расположение каналов : Front: L C R, Side: L R, LFE
Частота : 48,0 КГц
Битовая глубина : 16 бит
Метод сжатия : С потерями
Размер потока : 315 Мбайт (21%)
Выравнивание : Разделение по промежуткам
Продолжительность промежутка : 40 мс. (1,00 видеокадр)
Время предзагрузки промежутка : 500 мс.

Скриншоты




Создавать темы 20-Дек-2014 14:28

[Профиль]  [ЛС] 
Показать сообщения:    
Ответить на тему

Текущее время: 18-Окт 17:53

Часовой пояс: UTC + 5



Вы не можете начинать темы
Вы не можете отвечать на сообщения
Вы не можете редактировать свои сообщения
Вы не можете удалять свои сообщения
Вы не можете голосовать в опросах
Вы не можете прикреплять файлы к сообщениям
Вы не можете скачивать файлы