Расскажи / Tell (Дж.М.Р. Люна) [2014 г., боевик, драма, криминал, WEB-DLRip]

Ответить на тему
 

igor1968 ®

Стаж: 5 лет 7 месяцев

Сообщений: 366

Симпатии: 197

Расскажи / Tell Год выпуска: 2014
Страна:
Жанр: боевик, драма, криминал
Продолжительность: 01:28:54.417
Перевод: Любительский (одноголосый)[R.A.I.M]
Режиссер: Дж.М.Р. Люна
В ролях: Майло Вентимилья, Кэти Сакхофф, Джейсон Ли, Роберт Патрик, Алан Тьюдик, Джон Майкл Хиггинс, Фэйзон Лав, Оскар Нунез, Питер Рейнерт, Моника Янг
Описание: Мелкому мошеннику Этану Теллу удается сорвать куш в миллион долларов и оставить других с носом. Но полиция ловит его и после отсидки, он решает жить честно. Но его продолжают преследовать коррумпированные полицейские, офицер по досрочному освобождению, участники ограбления, даже жена. У всех один вопрос. Где деньги, "Зин"?- -Качество: WEB-DLRip
Формат: AVI
Видео кодек: XviD
Аудио кодек: AC3
Видео: 720x304 (2.37:1), 23.976 fps, XviD build 50 ~1799 kbps avg, 0.34 bit/pixel
Аудио: 48 kHz, AC3 Dolby Digital, 3/2 (L,C,R,l,r) + LFE ch, ~384.00 kbps avg-

MediaInfo

General
Complete name : Tell.2014.L1.WEB-DLRip.1400MB.UNIONGANG.TV.avi
Format : AVI
Format/Info : Audio Video Interleave
File size : 1.36 GiB
Duration : 1h 28mn
Overall bit rate : 2 193 Kbps
Movie name : Tell.2014.L1.WEB-DLRip.1400MB.ELEKTRI4KA
Director : TimeMashine
Writing application : VirtualDubMod 1.5.10.3 | www.virtualdub-fr.org || (build 2550/release)
Copyright : UNIONGANG.TV
Video
ID : 0
Format : MPEG-4 Visual
Format profile : Advanced Simple@L5
Format settings, BVOP : Yes
Format settings, QPel : No
Format settings, GMC : No warppoints
Format settings, Matrix : Custom
Codec ID : XVID
Codec ID/Hint : XviD
Duration : 1h 28mn
Bit rate : 1 800 Kbps
Width : 720 pixels
Height : 304 pixels
Display aspect ratio : 2.35:1
Frame rate : 23.976 fps
Color space : YUV
Chroma subsampling : 4:2:0
Bit depth : 8 bits
Scan type : Progressive
Compression mode : Lossy
Bits/(Pixel*Frame) : 0.343
Stream size : 1.12 GiB (82%)
Writing library : XviD 1.2.1 (UTC 2008-12-04)
Audio
ID : 1
Format : AC-3
Format/Info : Audio Coding 3
Mode extension : CM (complete main)
Format settings, Endianness : Big
Codec ID : 2000
Duration : 1h 28mn
Bit rate mode : Constant
Bit rate : 384 Kbps
Channel count : 6 channels
Channel positions : Front: L C R, Side: L R, LFE
Sampling rate : 48.0 KHz
Bit depth : 16 bits
Compression mode : Lossy
Stream size : 244 MiB (18%)
Alignment : Split accross interleaves
Interleave, duration : 42 ms (1.00 video frame)
Interleave, preload duration : 500 ms
-

Скриншоты




Создавать темы 20-Дек-2014 17:27

[Профиль]  [ЛС] 
Показать сообщения:    
Ответить на тему

Текущее время: 23-Окт 09:32

Часовой пояс: UTC + 5



Вы не можете начинать темы
Вы не можете отвечать на сообщения
Вы не можете редактировать свои сообщения
Вы не можете удалять свои сообщения
Вы не можете голосовать в опросах
Вы не можете прикреплять файлы к сообщениям
Вы не можете скачивать файлы