Солнечный удар (Никита Михалков) [2014 г., драма, DVDRip]

Ответить на тему
 

igor1968 ®

Стаж: 5 лет 7 месяцев

Сообщений: 366

Симпатии: 197

Солнечный удар«Как всё это случилось?» Год выпуска: 2014
Жанр: драма
Продолжительность: 02:53:00.120
Режиссер: Никита Михалков
В ролях: В главных ролях:
Мартиньш Калита
Виктория Соловьева
Сергей Серов
Алёна Спивак-Бычкова
Наталья Суркова
Денис Васильев
Ксения Попович
Олег Граф
Вадим Головко
Андрей Попович
...
Роли дублировали:
Евгений Миронов
сценарий: Никита Михалков, Владимир Моисеенко, Александр Адабашьян, ...
продюсер: Леонид Верещагин, Никита Михалков
оператор: Владислав Опельянц
композитор: Эдуард Артемьев
художник: Валентин Гидулянов
монтаж: Светолик Зайч
бюджет:
$21 000 000
сборы в России:
$1 693 797 сборы
зрители
Россия
: 300.1 тыс.
премьера: (мир)
3 октября 2014
премьера: (РФ)
9 октября 2014, «DreamTeam»
релиз на DVD:
9 декабря 2014, «CD Land», ...
Описание: Всего одна ночь с незнакомкой становится для главного героя настоящим наваждением. Этот «солнечный удар» не отпускает его даже в самые «окаянные дни» гибели Российской Империи…- -Качество: DVDRip
Формат: AVI
Видео кодек: XviD
Аудио кодек: MP3
Видео: 720x304 (2.37:1), 25 fps, XviD build 73 ~1067 kbps avg, 0.20 bit/pixel
Аудио: 48 kHz, MPEG Layer 3, 2 ch, ~128.00 kbps avg-

MediaInfo

General
Complete name : Solnechnyi.udar.2014.O.DVDRip.1.46GB_by_keeper.avi
Format : AVI
Format/Info : Audio Video Interleave
File size : 1.46 GiB
Duration : 2h 53mn
Overall bit rate : 1 205 Kbps
Writing application : VirtualDubMod 1.5.10.3 | www.virtualdub-fr.org || (build 2550/release)
Writing library : VirtualDubMod build 2550/release
Video
ID : 0
Format : MPEG-4 Visual
Format profile : Advanced [email protected]
Format settings, BVOP : Yes
Format settings, QPel : No
Format settings, GMC : No warppoints
Format settings, Matrix : Custom
Codec ID : XVID
Codec ID/Hint : XviD
Duration : 2h 53mn
Bit rate : 1 068 Kbps
Width : 720 pixels
Height : 304 pixels
Display aspect ratio : 2.35:1
Frame rate : 25.000 fps
Color space : YUV
Chroma subsampling : 4:2:0
Bit depth : 8 bits
Scan type : Progressive
Compression mode : Lossy
Bits/(Pixel*Frame) : 0.195
Stream size : 1.29 GiB (89%)
Writing library : XviD 73
Audio
ID : 1
Format : MPEG Audio
Format version : Version 1
Format profile : Layer 3
Codec ID : 55
Codec ID/Hint : MP3
Duration : 2h 53mn
Bit rate mode : Constant
Bit rate : 128 Kbps
Channel count : 2 channels
Sampling rate : 48.0 KHz
Compression mode : Lossy
Stream size : 158 MiB (11%)
Alignment : Aligned on interleaves
Interleave, duration : 40 ms (1.00 video frame)
Interleave, preload duration : 504 ms
Writing library : LAME3.99r
Encoding settings : -m s -V 4 -q 2 -lowpass 17 -b 128
-

Скриншоты





Создавать темы 20-Дек-2014 19:58

[Профиль]  [ЛС] 

Djan

Стаж: 7 лет 3 месяца

Сообщений: 72

Михалков стайл
бюджет:
$21 000 000
сборы в России:
$1 693 797 сборы

Создавать темы 26-Дек-2014 11:49

[Профиль]  [ЛС] 

igor1968 ®

Стаж: 5 лет 7 месяцев

Сообщений: 366

Симпатии: 197

905492Михалков стайл
бюджет:
$21 000 000
сборы в России:
$1 693 797 сборы

Создавать темы 26-Дек-2014 17:44

[Профиль]  [ЛС] 

Astrolog

Стаж: 5 лет 4 месяца

Сообщений: 213

Симпатии: 27

сборы
Да какая разница?
Я этот фильм, как и многие прочие фильмы Михалкова, рекомендую своим детям к просмотру, пусть только дорастут, до осознания понятия "измена".
И сам пересмотрю кинокартину впоследствии и, пожалуй, не для "сборов" она снималась...

Создавать темы 26-Дек-2014 18:36

[Профиль]  [ЛС] 

Theofrast

Стаж: 6 лет 8 месяцев

Сообщений: 33

Симпатии: 30

Хороший, годный фильм.
Пожалуй, это лучшее, что Михалков снял за всю свою жизнь.
Лично мне в фильме понравилось то, что точка зрения зрителя может быть диаметрально противоположна точке зрения автора, но при этом нисколько не противоречить сюжету и содержанию.
Вот ведь какой парадокс.

Создавать темы 28-Дек-2014 21:16

[Профиль]  [ЛС] 

sergeek

Стаж: 4 года

Сообщений: 34

Симпатии: 1

905627
сборы
Да какая разница?
Разница в том, что даже целевая аудитория игнорирует этот михалковский высер. Первые фильмы были неплохими, но от этого мурыжева на тему великой россиюшки тошнит уже. Причем этот прям таки апофеоз его маразма. Абсолютно бездарный фильм с запахом, или скорее вонью, гос. пропаганды

Создавать темы 30-Дек-2014 23:49

[Профиль]  [ЛС] 

ashirov_89

Стаж: 4 года 3 месяца

Сообщений: 4

Фильм хороши!!! а шпионом из Америки он не нравиться ))))))

Создавать темы 11-Янв-2015 00:22

[Профиль]  [ЛС] 

pct

Стаж: 6 лет 8 месяцев

Сообщений: 120

Симпатии: 12

ashirov_89, а нешпионы из Узбекистана не знают правила правописания мягкого знака в глаголах. "Что делает - не нравится". Читайте Пикуля, узнавайте про Царя-тряпку, его немецкую шлюху Аликс, предателя Колчака, мракобеса Распутина и может быть тогда поймёте почему сраная рашка постоянно катится в сраную задницу.

Создавать темы 08-Фев-2015 12:09

[Профиль]  [ЛС] 

Astrolog

Стаж: 5 лет 4 месяца

Сообщений: 213

Симпатии: 27

Читайте Пикуля... сраная рашка... в сраную задницу.
Пикуль - некто историк ли? Или хтой?
"Слухайте Псаку про сраную рашку и итить её сраную задницу."))

Создавать темы 09-Фев-2015 12:06

[Профиль]  [ЛС] 

Theofrast

Стаж: 6 лет 8 месяцев

Сообщений: 33

Симпатии: 30

Astrolog,
Валентин Пикуль - известный советский писатель.
Кстати, - он ветеран Войны, реально воевал, а не отсиживался в гулагах.

Создавать темы 09-Фев-2015 20:13

[Профиль]  [ЛС] 

Astrolog

Стаж: 5 лет 4 месяца

Сообщений: 213

Симпатии: 27

Валентин Пикуль - известный советский писатель...
То был вопрос исключительно риторический. ;)

Создавать темы 09-Фев-2015 22:15

[Профиль]  [ЛС] 
Показать сообщения:    
Ответить на тему

Текущее время: 22-Окт 09:49

Часовой пояс: UTC + 5



Вы не можете начинать темы
Вы не можете отвечать на сообщения
Вы не можете редактировать свои сообщения
Вы не можете удалять свои сообщения
Вы не можете голосовать в опросах
Вы не можете прикреплять файлы к сообщениям
Вы не можете скачивать файлы