Великолепный парк Амаги / Amagi Brilliant Park (Такэмото Ясухиро) [13 из 13] [RUS] [Ancord & Nika Lenina] [2014 г., комедия, романтика, мистика, HDTVRip] [720p]

Ответить на тему
 

SNIL ®

Стаж: 5 лет 9 месяцев

Сообщений: 2624

Симпатии: 341

Великолепный парк Амаги
Amagi Brilliant Park
-
Год выпуска: 2014
Страна: Япония
Жанр: комедия, романтика, мистика
Продолжительность: 13 эп. по 25 мин.-Озвучка:
  • Ancord, Nika Lenina
-Режиссёр: Такэмото Ясухиро
Автор оригинала: Гато Сёдзи
Студия: -Описание:
Парни, кого из вас девушки приглашали на свидание? Так, руки есть. А под дулом мушкета? То-то же. Главный герой этого аниме, обыкновенный японский школьник с необычным прошлым Каниэ Сэйя в подобной ситуации оказался. Переведённая в школу совсем недавно Сэнто Исудзу однажды пришла в его класс и наставила на него ствол.-Качество: HDTVRip
Формат видео: mp4
Видео: x264 (8 bits), 1280х720, 1 800 kbps~, 23.976 fps~
Аудио Russian: ААС, 48.0 kHz, 192 Kbps, 2ch -

Подробные тех. данные

E:\Аниме\Amagi Brilliant Park\[AniDub]_Amagi_Brilliant_Park_[01]_[720p_x264_Aac]_[Ancord_NikaLenina].mp4
   General
      Complete name : E:\Аниме\Amagi Brilliant Park\[AniDub]_Amagi_Brilliant_Park_[01]_[720p_x264_Aac]_[Ancord_NikaLenina].mp4
      Format : MPEG-4
      Format profile : Base Media
      Codec ID : isom
      File size : 356 MiB
      Duration : 24mn 29s
      Overall bit rate : 2 030 Kbps
      Encoded date : UTC 2014-10-09 16:59:23
      Tagged date : UTC 2014-10-09 16:59:23
      Writing application : Yamb 2.1.0.0 [http://yamb.unite-video.com]
   Video #1
      ID : 1
      Format : AVC
      Format/Info : Advanced Video Codec
      Format profile : [email protected]
      Format settings, CABAC : Yes
      Format settings, ReFrames : 4 frames
      Codec ID : avc1
      Codec ID/Info : Advanced Video Coding
      Duration : 24mn 29s
      Bit rate mode : Variable
      Bit rate : 1 834 Kbps
      Maximum bit rate : 16.5 Mbps
      Width : 1 280 pixels
      Height : 720 pixels
      Display aspect ratio : 16:9
      Frame rate mode : Constant
      Frame rate : 23.976 fps
      Color space : YUV
      Chroma subsampling : 4:2:0
      Bit depth : 8 bits
      Scan type : Progressive
      Bits/(Pixel*Frame) : 0.083
      Stream size : 321 MiB (90%)
      Title : 264
      Writing library : x264 core 129 r2245+729M 1a52e03
      Encoding settings : cabac=1 / ref=4 / deblock=1:1:-1 / analyse=0x3:0x113 / me=umh / subme=9 / psy=1 / fade_compensate=0.00 / psy_rd=1.00:0.00 / mixed_ref=1 / me_range=24 / chroma_me=1 / trellis=2 / 8x8dct=1 / cqm=0 / deadzone=21,11 / fast_pskip=1 / chroma_qp_offset=-2 / threads=8 / lookahead_threads=1 / sliced_threads=0 / nr=0 / decimate=1 / interlaced=0 / bluray_compat=0 / constrained_intra=0 / fgo=0 / bframes=9 / b_pyramid=2 / b_adapt=2 / b_bias=0 / direct=1 / weightb=1 / open_gop=0 / weightp=2 / keyint=240 / keyint_min=24 / scenecut=40 / intra_refresh=0 / rc=crf / mbtree=0 / crf=18.5 / qcomp=0.72 / qpmin=0 / qpmax=69 / qpstep=4 / ip_ratio=1.40 / pb_ratio=1.30 / aq=1:0.85
      Encoded date : UTC 2014-10-07 12:01:29
      Tagged date : UTC 2014-10-09 16:59:26
      Color primaries : BT.709-5, BT.1361, IEC 61966-2-4, SMPTE RP177
      Transfer characteristics : BT.709-5, BT.1361
      Matrix coefficients : BT.709-5, BT.1361, IEC 61966-2-4 709, SMPTE RP177
   Audio #2
      ID : 2
      Format : AAC
      Format/Info : Advanced Audio Codec
      Format version : Version 4
      Format profile : LC
      Format settings, SBR : No
      Codec ID : 40
      Duration : 24mn 29s
      Bit rate mode : Variable
      Bit rate : 192 Kbps
      Maximum bit rate : 200 Kbps
      Channel(s) : 2 channels
      Channel positions : Front: L R
      Sampling rate : 48.0 KHz
      Stream size : 33.7 MiB (9%)
      Language : Russian
      Encoded date : UTC 2014-10-09 16:59:25
      Tagged date : UTC 2014-10-09 16:59:26

Скриншоты

Создавать темы 20-Дек-2014 20:40

[Профиль]  [ЛС] 

Топик был перенесен из форума Аниме онгоинги в форум HD, HDTVRip
SNIL

Создавать темы 18-Янв-2015 07:05

 

SNIL ®

Стаж: 5 лет 9 месяцев

Сообщений: 2624

Симпатии: 341

Релиз завершён.

Создавать темы 18-Янв-2015 07:05

[Профиль]  [ЛС] 

TaKaShi

Стаж: 5 лет 1 месяц

Сообщений: 34

Просьба к скачавшим не уходить с раздачи.

Создавать темы 23-Мар-2015 18:22

[Профиль]  [ЛС] 

Hurracan

Стаж: 2 года 1 месяц

Сообщений: 79

Симпатии: 80

раздавайте пожалуйста

Предупреждение от [email protected]


Для первого раза устное предупреждение как новому пользователю, дальше будут приняты меры, так что настоятельно рекомендую Вам ознакомится с правилами трекера, особенно со следующим пунктом:
6.8. В комментариях запрещается создавать бессмысленные сообщения, не несущие абсолютно никакой полезной информации ( "дайте скорости", "встаньте на раздачу", "раздаю", "газу" и т.п.).

Создавать темы 29-Сен-2015 15:12

[Профиль]  [ЛС] 
Показать сообщения:    
Ответить на тему

Текущее время: 24-Окт 09:15

Часовой пояс: UTC + 5



Вы не можете начинать темы
Вы не можете отвечать на сообщения
Вы не можете редактировать свои сообщения
Вы не можете удалять свои сообщения
Вы не можете голосовать в опросах
Вы не можете прикреплять файлы к сообщениям
Вы не можете скачивать файлы