Вторжение / The Invasion (Джеймс МакТиг, Оливер Хиршбигель) [2007 г., Триллер, Фантастика, BDRip]

Ответить на тему
 

Страх ®

Стаж: 3 года 10 месяцев

Сообщений: 1131

Симпатии: 448

Вторжение / The Invasion Год выпуска: 2007
Страна: Австралия, США
Жанр: Триллер, Фантастика
Продолжительность: 01:39:22
Перевод: Профессиональный (дублирований -Лицензия)-Режиссер: Джеймс МакТиг, Оливер Хиршбигель-В ролях: Вероника Картрайт, Джеффри Райт, Дэниэл Крэйг, Николь Кидман, Роджер Рис, Селия Уэстон, Йозеф Зоммер, Джереми Нортэм, Джексон Бонд, Эрик Бенжамин
Описание: История о таинственной эпидемии, которую насылают на жителей маленького городка внедрившиеся на планету инопланетяне. Героине Николь Кидман, психиатру из Вашингтона, удается найти причину непонятных изменений в поведении людей этого города.- Фильм из ряда "Рекомендуемый к просмотру"-Качество: BDRip
Формат: AVI
Видео кодек: XviD
Аудио кодек: MP3
Видео: 624x352 23.976fps 913kbps
Аудио: 48000Hz stereo 128kbps

Media info

General
Complete name : D:\Tracker\Movie Files\The Invasion_ BDRIP.avi
Format : AVI
Format/Info : Audio Video Interleave
File size : 747 MiB
Duration : 1h 39mn
Overall bit rate : 1 051 Kbps
Writing application : VirtualDubMod 1.5.10.2 (build 2540/release)
Writing library : VirtualDubMod build 2540/release
Video
ID : 0
Format : MPEG-4 Visual
Format profile : Advanced [email protected]
Format settings, BVOP : 1
Format settings, QPel : No
Format settings, GMC : No warppoints
Format settings, Matrix : Custom
Codec ID : XVID
Codec ID/Hint : XviD
Duration : 1h 39mn
Bit rate : 914 Kbps
Width : 624 pixels
Height : 352 pixels
Display aspect ratio : 16:9
Frame rate : 23.976 fps
Color space : YUV
Chroma subsampling : 4:2:0
Bit depth : 8 bits
Scan type : Progressive
Compression mode : Lossy
Bits/(Pixel*Frame) : 0.174
Stream size : 650 MiB (87%)
Writing library : XviD 1.2.1 (UTC 2008-12-04)
Audio
ID : 1
Format : MPEG Audio
Format version : Version 1
Format profile : Layer 3
Codec ID : 55
Codec ID/Hint : MP3
Duration : 1h 39mn
Bit rate mode : Constant
Bit rate : 128 Kbps
Channel(s) : 2 channels
Sampling rate : 48.0 KHz
Compression mode : Lossy
Stream size : 91.0 MiB (12%)
Alignment : Aligned on interleaves
Interleave, duration : 42 ms (1.00 video frame)
Interleave, preload duration : 504 ms
Writing library : LAME3.98r
Encoding settings : -m s -V 4 -q 2 -lowpass 17 -b 128

Скриншоты





Создавать темы 21-Дек-2014 12:54

[Профиль]  [ЛС] 

GamesteR

Стаж: 4 года 2 месяца

Сообщений: 13

Симпатии: 6

СКОРОСТИ ПОЖАЛУЙСТА

Создавать темы 15-Май-2015 01:35

[Профиль]  [ЛС] 
Показать сообщения:    
Ответить на тему

Текущее время: 22-Авг 14:21

Часовой пояс: UTC + 5



Вы не можете начинать темы
Вы не можете отвечать на сообщения
Вы не можете редактировать свои сообщения
Вы не можете удалять свои сообщения
Вы не можете голосовать в опросах
Вы не можете прикреплять файлы к сообщениям
Вы не можете скачивать файлы