Легкие деньги (Хорошие люди) / Good People (Генрик Рубен Генц) [2014 г., триллер, криминал, боевик, ..., BDRip]

Ответить на тему
 

igor1968 ®

Стаж: 5 лет 5 месяцев

Сообщений: 366

Симпатии: 197

Легкие деньги (Хорошие люди) / Good People«Бери и беги!» Год выпуска: 2014
Страна:
Жанр: триллер, криминал, боевик, ...
Продолжительность: 01:30:13.241
Перевод: Профессиональный (полное дублирование)
Режиссер: Генрик Рубен Генц
сценарий: Келли Мастерсон, Маркус Сакей
продюсер: Эд Кэйтелл III, Томас Гаммльтофт, Эрик Кренцлер, ...
оператор: Ёрген Йоханссон
композитор: Нил Дэвидж
художник: Кейв Куинн, Тим Блейк, Марк Раггетт, ...
монтаж: Пол Тотхилл
зрители:
1 тыс.
премьера:
12 августа 2014, ...
премьера:
27 ноября 2014, «Ракета Релизинг»-В ролях:Джеймс Франко, Кейт Хадсон, Омар Си, Том Уилкинсон, Сэм Спруэлл, Анна Фрил, Диармэйд Мурта, Диана Хардкэсл, Ласко Аткинс, Майкл Джибсон- Молодая пара Том и Анна Райт попадают в долги из-за семейных проблем. Переживая не лучшие времена, герои триллера «Хорошие люди» вдруг обнаруживают, что жилец в квартире под ними был убит и после себя оставил около 400 тысяч долларов наличными. Перед супругами встает дилемма: взять деньги себе или оставить их в квартире.- -Качество: BDRip
Формат: AVI
Видео кодек: XviD
Аудио кодек: AC3
Видео: 720x400 (1.80:1), 23.976 fps, XviD build 50 ~1939 kbps avg, 0.28 bit/pixel
Аудио: 48 kHz, AC3 Dolby Digital, 2/0 (L,R) ch, ~384.00 kbps avg-

MediaInfo

General
Complete name : Good.People.2014.D.BDRip.1.47Gb_by_Twi7ter.avi
Format : AVI
Format/Info : Audio Video Interleave
File size : 1.47 GiB
Duration : 1h 30mn
Overall bit rate : 2 333 Kbps
Movie name : Good.People.2014.L2.[Paradox].BDRip.1.46Gb_by_Twi7ter
Director : Twi7ter
Genre : Action/Thriller/Crime
Writing application : VirtualDubMod 1.5.10.3 (build 2550/release)
Writing library : VirtualDubMod build 2550/release
Original source form/Name : Movie
Video
ID : 0
Format : MPEG-4 Visual
Format profile : Advanced [email protected]
Format settings, BVOP : Yes
Format settings, QPel : No
Format settings, GMC : No warppoints
Format settings, Matrix : Default (MPEG)
Codec ID : XVID
Codec ID/Hint : XviD
Duration : 1h 30mn
Bit rate : 1 940 Kbps
Width : 720 pixels
Height : 400 pixels
Display aspect ratio : 16:9
Frame rate : 23.976 fps
Color space : YUV
Chroma subsampling : 4:2:0
Bit depth : 8 bits
Scan type : Progressive
Compression mode : Lossy
Bits/(Pixel*Frame) : 0.281
Stream size : 1.22 GiB (83%)
Writing library : XviD 1.2.1 (UTC 2008-12-04)
Audio
ID : 1
Format : AC-3
Format/Info : Audio Coding 3
Mode extension : CM (complete main)
Format settings, Endianness : Big
Codec ID : 2000
Duration : 1h 30mn
Bit rate mode : Constant
Bit rate : 384 Kbps
Channel count : 2 channels
Channel positions : Front: L R
Sampling rate : 48.0 KHz
Bit depth : 16 bits
Compression mode : Lossy
Stream size : 248 MiB (16%)
Alignment : Split accross interleaves
Interleave, duration : 42 ms (1.00 video frame)
Interleave, preload duration : 500 ms
-

Скриншоты





Создавать темы 21-Дек-2014 20:45

[Профиль]  [ЛС] 
Показать сообщения:    
Ответить на тему

Текущее время: 23-Авг 05:47

Часовой пояс: UTC + 5



Вы не можете начинать темы
Вы не можете отвечать на сообщения
Вы не можете редактировать свои сообщения
Вы не можете удалять свои сообщения
Вы не можете голосовать в опросах
Вы не можете прикреплять файлы к сообщениям
Вы не можете скачивать файлы