Advanced jQuery Image Carousel Slider [2013 г.]

Ответить на тему
 

neoman ®

Стаж: 3 года 6 месяцев

Сообщений: 25

Симпатии: 15

Advanced Jquery Image Carousel Slider
Производитель: Lamin Sanneh
Год выпуска: 2013
Язык: английский
Продолжительность: 6:00 ~ 11:30 мин
Описание: An advanced jquery slider plugin tutorial. Fully customizable with styling, auto scrolling, and loads more!
В этом видео уроке автор показывает как создать карусель изображение на jQuery. Вы научитесь создать свой подключаемый модуль для jQuery, настраивать время и скорость перехода.

Media Info

Format : MPEG-4
Format profile : Base Media / Version 2
Codec ID : mp42
File size : 31.0 MiB
Duration : 5mn 8s
Overall bit rate mode : Variable
Overall bit rate : 842 Kbps
Encoded date : UTC 2014-03-11 13:51:23
Tagged date : UTC 2014-03-11 13:51:23
gsst : 0
gstd : 308568
gssd : B4A7DDAE6MH1419073999657380
gshh : r6---sn-4g57kuer.googlevideo.com
Video
ID : 1
Format : AVC
Format/Info : Advanced Video Codec
Format profile : [email protected]
Format settings, CABAC : Yes
Format settings, ReFrames : 1 frame
Format settings, GOP : M=1, N=60
Codec ID : avc1
Codec ID/Info : Advanced Video Coding
Duration : 5mn 8s
Bit rate : 648 Kbps
Maximum bit rate : 4 069 Kbps
Width : 1 152 pixels
Height : 720 pixels
Display aspect ratio : 16:10
Frame rate mode : Constant
Frame rate : 30.000 fps
Color space : YUV
Chroma subsampling : 4:2:0
Bit depth : 8 bits
Scan type : Progressive
Bits/(Pixel*Frame) : 0.026
Stream size : 23.8 MiB (77%)
Tagged date : UTC 2014-03-11 13:51:25
Audio
ID : 2
Format : AAC
Format/Info : Advanced Audio Codec
Format profile : LC
Codec ID : 40
Duration : 5mn 8s
Bit rate mode : Variable
Bit rate : 192 Kbps
Maximum bit rate : 201 Kbps
Channel(s) : 2 channels
Channel positions : Front: L R
Sampling rate : 44.1 KHz
Compression mode : Lossy
Stream size : 7.06 MiB (23%)
Title : IsoMedia File Produced by Google, 5-11-2011
Encoded date : UTC 2014-03-11 13:51:24
Tagged date : UTC 2014-03-11 13:51:25

Список Уроков

Advanced Jquery Image Carousel Slider - Part 1 - Intro 01:54
Advanced Jquery Image Carousel Slider - Part 2 - Foundation 11:14
Advanced Jquery Image Carousel Slider - Part 3 - Styling 08:53
Advanced Jquery Image Carousel Slider - Part 4 - Styling Continued 09:04
Advanced Jquery Image Carousel Slider - Part 5 - Configuring Settings A 06:13
Advanced Jquery Image Carousel Slider - Part 6 - Configuring Settings B 05:44
Advanced Jquery Image Carousel Slider - Part 7 - Configuring Settings C 07:22
Advanced Jquery Image Carousel Slider - Part 8 - Initializing the Plugin - A 07:49
Advanced Jquery Image Carousel Slider - Part 9 - Initializing the Plugin - B 07:30
Advanced Jquery Image Carousel Slider - Part 10 - Slide Event - A 06:46
Advanced Jquery Image Carousel Slider - Part 11 - Slide Event - B 09:36
Advanced Jquery Image Carousel Slider - Part 12 - Slide Event - C 05:08
Advanced Jquery Image Carousel Slider - Part 13 - Slide Event - D 07:24
Advanced Jquery Image Carousel Slider - Part 14 - Slide Event - E 05:07
Advanced Jquery Image Carousel Slider - Part 15 - KeyboardArrowEvents 04:47
Advanced Jquery Image Carousel Slider - Part 16 - Scroll Buttons A 05:26
Advanced Jquery Image Carousel Slider - Part 17 - Scroll Buttons B 05:27
Advanced Jquery Image Carousel Slider - Part 18 - Scroll Buttons C 05:27
Advanced Jquery Image Carousel Slider - Part 19 - Scroll Buttons D 06:02
Advanced Jquery Image Carousel Slider - Part 20 - Scroll Buttons E 05:36
Advanced Jquery Image Carousel Slider - Part 21 - Scroll Buttons F 05:06
Advanced Jquery Image Carousel Slider - Part 22 - Scroll Buttons G 04:18
Видео кодек: Другой MPEG4
Видео: AVC 648 Kbps 1152x720 - 1280х720px 16:10
Аудио: AAC 192 Kbps Stereo 44.1 KHz

Скриншоты



Последний раз редактировалось: neoman (2014-12-23 10:49), всего редактировалось 5 раз(а)

Создавать темы 22-Дек-2014 17:33

[Профиль]  [ЛС] 

Xasanali

Стаж: 6 лет 9 месяцев

Сообщений: 14

Thaks

Создавать темы 22-Дек-2014 22:59

[Профиль]  [ЛС] 

ivin

Стаж: 5 лет 4 месяца

Сообщений: 41

Уже почти месяц, как начата раздача, но ни одного скачавшего. У всех 8%.

Создавать темы 18-Янв-2015 11:55

[Профиль]  [ЛС] 

neoman ®

Стаж: 3 года 6 месяцев

Сообщений: 25

Симпатии: 15

912350Уже почти месяц, как начата раздача, но ни одного скачавшего. У всех 8%.
Раздача Восстановлена !

Создавать темы 02-Фев-2015 14:36

[Профиль]  [ЛС] 
Показать сообщения:    
Ответить на тему

Текущее время: 19-Авг 01:12

Часовой пояс: UTC + 5



Вы не можете начинать темы
Вы не можете отвечать на сообщения
Вы не можете редактировать свои сообщения
Вы не можете удалять свои сообщения
Вы не можете голосовать в опросах
Вы не можете прикреплять файлы к сообщениям
Вы не можете скачивать файлы