В изгнании / Outcast (Ник Пауэлл / Nick Powell) [2014, Китай, США, Франция, Боевик, WEB-DLRip] MVO

Ответить на тему
 

Suxrob89 ®

Стаж: 7 лет 2 месяца

Сообщений: 933

Симпатии: 564

-В изгнании / Outcast- Страна: Китай, США, Франция
Жанр: Боевик
Год выпуска: 2014
Продолжительность: 01:30:24
Перевод: Профессиональное (многоголосое)
Оригинальная аудиодорожка: нет
Cубтитры: нет-Режиссер: Ник Пауэлл / Nick Powell-В ролях:Николас Кейдж, Хейден Кристенсен, Лю Ифэй, Рон Смуренбург, Энди Он, Джавед Эль Берни, Фернандо Чиен, Престон Бэйкер, Байрон Лосон, Томер Оз-Описание: Действие будет происходить в Китае в десятом веке, и в центре истории — воин, который, чтобы вернуть доверие, вызывается спасти принцессу.- -Качество: WEB-DLRip
Контейнер: AVI
Видео: 720x304 (2.37:1), 23.976 fps, XviD build 50 ~1721 kbps avg, 0.33 bit/pixel
Аудио: 48 kHz, AC3 Dolby Digital, 2/0 (L,R) ch, ~384 kbps

MI

Общее
Полное имя : C:\Users\Пользователь\Downloads\V.Izgn4ni.2014.P.WEB-DLRip.1400MB.avi
Формат : AVI
Формат/Информация : Audio Video Interleave
Размер файла : 1,46 Гбайт
Продолжительность : 1 ч. 38 м.
Общий поток : 2115 Кбит/сек
Программа кодирования : VirtualDubMod 1.5.10.2 (build 2540/release)
Библиотека кодирования : VirtualDubMod build 2540/release
Видео
Идентификатор : 0
Формат : MPEG-4 Visual
Профиль формата : Advanced [email protected]
Параметр BVOP формата : 2
Параметр QPel формата : Нет
Параметр GMC формата : Без точки перехода
Параметр матрицы формата : Default (MPEG)
Идентификатор кодека : XVID
Идентификатор кодека/Подсказка : XviD
Продолжительность : 1 ч. 38 м.
Битрейт : 1722 Кбит/сек
Ширина : 720 пикселей
Высота : 304 пикселя
Соотношение сторон : 2,35:1
Частота кадров : 23,976 кадра/сек
Цветовое пространство : YUV
Субдискретизация насыщенности : 4:2:0
Битовая глубина : 8 бит
Тип развёртки : Прогрессивная
Метод сжатия : С потерями
Бит/(Пиксели*Кадры) : 0.328
Размер потока : 1,19 Гбайт (81%)
Библиотека кодирования : XviD 1.2.1 (UTC 2008-12-04)
Аудио
Идентификатор : 1
Формат : AC-3
Формат/Информация : Audio Coding 3
Расширение режима : CM (complete main)
Параметр Endianness формата : Big
Идентификатор кодека : 2000
Продолжительность : 1 ч. 38 м.
Вид битрейта : Постоянный
Битрейт : 384 Кбит/сек
Каналы : 2 канала
Расположение каналов : Front: L R
Частота : 48,0 КГц
Битовая глубина : 16 бит
Метод сжатия : С потерями
Размер потока : 271 Мбайт (18%)
Выравнивание : Разделение по промежуткам
Продолжительность промежутка : 42 мс. (1,00 видеокадр)
Время предзагрузки промежутка : 500 мс.

Скриншоты

Создавать темы 23-Дек-2014 06:22

[Профиль]  [ЛС] 

Lithium

Стаж: 7 лет 1 месяц

Сообщений: 35

904630kakoy film kto smotriw ?
WTA?

Создавать темы 23-Дек-2014 17:19

[Профиль]  [ЛС] 

boxodir90

Стаж: 5 лет 1 месяц

Сообщений: 49

Симпатии: 4

904697
904630kakoy film kto smotriw ?
WTA?
Lithium, надо было написать "WTF?" ))

Создавать темы 23-Дек-2014 18:48

[Профиль]  [ЛС] 

HE4TO

Стаж: 6 лет 6 месяцев

Сообщений: 12

К сожалению, последнее время, если видишь Кейджа в ролях, проходишь мимо.

Создавать темы 23-Дек-2014 21:10

[Профиль]  [ЛС] 

stepl

Стаж: 3 года 8 месяцев

Сообщений: 3

Даже смотреть не буду

Создавать темы 24-Дек-2014 05:00

[Профиль]  [ЛС] 

Clever

Стаж: 5 лет 1 месяц

Сообщений: 31

Мда Кейдж куда ты катишься ))

Создавать темы 26-Дек-2014 23:40

[Профиль]  [ЛС] 
Показать сообщения:    
Ответить на тему

Текущее время: 19-Окт 23:24

Часовой пояс: UTC + 5



Вы не можете начинать темы
Вы не можете отвечать на сообщения
Вы не можете редактировать свои сообщения
Вы не можете удалять свои сообщения
Вы не можете голосовать в опросах
Вы не можете прикреплять файлы к сообщениям
Вы не можете скачивать файлы