След тигра (Алексей Козлов) [2014, Криминальная драма, SATRip]

Ответить на тему
 

Zab ®

Стаж: 6 лет 4 месяца

Сообщений: 476

Симпатии: 424

След тигра- Год выпуска: 2014
Производство: Россия, ООО «Студия „КонтАкт продакшн“»
Жанр: Криминальная драма
Продолжительность: 01:31:17-Режиссёр: Алексей Козлов
Автор сценария: Андрей Тумаркин
Оператор: Валерий Дегтярев
Композитор: Юрий Потеенко
В ролях: Александр Балуев, Алексей Кравченко, Денис Никифоров, Александр Устюгов, Мария Порошина, Мария Пирогова, Роман Мадянов, Вадим Андреев-Описание: В небольшом поселке, расположенном в тайге Приморского края, живет потомственный егерь Павел Широков. На его участке происходит дерзкое преступление - браконьеры отстреливают двух уссурийских тигров. В тот же день сотрудники ДПС останавливают на трассе внедорожник. На просьбу открыть багажник пассажиры реагируют агрессивно, в результате чего завязывается перестрелка, и все ее участники погибают. Прибывший на место преступления полковник Хазов, занимающийся расследованием этого дела, обнаруживает в багажнике машины убитых тигров и узнает в одном из погибших браконьеров местного охотника-проводника.Хазов уверен, что в ближайшие дни преступники будут искать нового человека, который сможет вывести их на след тигра. Он предлагает Широкову опередить браконьеров и выйти к местонахождению тигра первыми, чтобы успеть предотвратить убийство животного. Ради такого дела егерь соглашается. Уже в тайге, практически выследив уссурийского тигра, Широков вдруг понимает, что он попал в смертельную ловушку. В момент, когда герою кажется, что у него уже нет шансов на спасение - помощь приходит неожиданно, и прямо здесь, в тайге!-Качество: SATRip
Формат: AVI
Видео кодек: DivX
Аудио кодек: MP3
Видео: DivX 5 720x448 25fps 2003kbps, 25 fps
Аудио: MP3, 48kHz stereo, 2 ch, 128kbps

MI

General
Complete name                            : D:\[Movies]\Sled.Tigra.SATRip.avi
Format                                   : AVI
Format/Info                              : Audio Video Interleave
File size                                : 1.37 GiB
Duration                                 : 1h 31mn
Overall bit rate                         : 2 145 Kbps
Video
ID                                       : 0
Format                                   : MPEG-4 Visual
Format settings, BVOP                    : 1
Format settings, QPel                    : No
Format settings, GMC                     : No warppoints
Format settings, Matrix                  : Default (H.263)
Codec ID                                 : DX50
Codec ID/Hint                            : DivX 5
Duration                                 : 1h 31mn
Bit rate                                 : 2 003 Kbps
Width                                    : 720 pixels
Height                                   : 448 pixels
Display aspect ratio                     : 16:10
Frame rate                               : 25.000 fps
Color space                              : YUV
Chroma subsampling                       : 4:2:0
Bit depth                                : 8 bits
Scan type                                : Progressive
Compression mode                         : Lossy
Bits/(Pixel*Frame)                       : 0.248
Stream size                              : 1.28 GiB (93%)
Writing library                          : DivX 6.8.5 (UTC 2009-08-20)
Audio
ID                                       : 1
Format                                   : MPEG Audio
Format version                           : Version 1
Format profile                           : Layer 3
Mode                                     : Joint stereo
Codec ID                                 : 55
Codec ID/Hint                            : MP3
Duration                                 : 1h 31mn
Bit rate mode                            : Constant
Bit rate                                 : 128 Kbps
Channel(s)                               : 2 channels
Sampling rate                            : 48.0 KHz
Compression mode                         : Lossy
Stream size                              : 83.6 MiB (6%)
Alignment                                : Aligned on interleaves
Interleave, duration                     : 24 ms (0.60 video frame)

Скриншоты

Создавать темы 23-Дек-2014 11:16

[Профиль]  [ЛС] 

serj777

Стаж: 4 года 2 месяца

Сообщений: 59

Симпатии: 3

кто смотрел? дайте знать! как фильм?

Создавать темы 02-Янв-2015 21:56

[Профиль]  [ЛС] 

Shera_best

Стаж: 3 года 9 месяцев

Сообщений: 40

Симпатии: 12

подбор актеров хороший, но чего-то не хватает в фильме. искорки что ли...
7 из 10.

Создавать темы 25-Янв-2015 18:14

[Профиль]  [ЛС] 
Показать сообщения:    
Ответить на тему

Текущее время: 20-Сен 21:27

Часовой пояс: UTC + 5



Вы не можете начинать темы
Вы не можете отвечать на сообщения
Вы не можете редактировать свои сообщения
Вы не можете удалять свои сообщения
Вы не можете голосовать в опросах
Вы не можете прикреплять файлы к сообщениям
Вы не можете скачивать файлы