Гленгарри Глен Росс (Американцы) / Glengarry Glen Ross (Джеймс Фоули / James Foley) [1992, драма, DTheaterRip 720p]

Ответить на тему
 

pirat ®

Стаж: 5 лет 5 месяцев

Сообщений: 216

Симпатии: 63

Гленгарри Глен Росс (Американцы) / Glengarry Glen Ross- Год выпуска: 1992
Страна: США
Жанр: драма
Продолжительность: 01:40:26
Перевод: Профессиональный (многоголосый, закадровый), авторские одноголосые Юрия Сербина и Андрея Гаврилова
Cубтитры: русские, английские-Режиссер: Джеймс Фоули-В ролях: Аль Пачино, Алек Болдуин, Джек Леммон, Эд Харрис, Алан Аркин, Кевин Спейси, Джонатан Прайс, Брюс Олтмен, Джуд Чикколелла, Пол Батлер-Описание:
Когда на одной съемочной площадке собираются такие звезды, значит, фильм станет событием. Другое дело, каким событием. Ведь провалов у подобных экспериментов ничуть не меньше, чем побед. И все же, "Американцы" с лучшими актерами Голливуда трех поколений удались.
Это история соперничества клерков одного из агентств по торговле недвижимостью. Что тут смешного? Все. Потому что само соперничество - карикатурное: кто больше и лучше продаст. Где же мечты о победах в сражениях? Где же романтические порывы? Какое там, эти мужчины работают, чтобы прокормиться. И соперничают, чтобы не перестать быть мужчинами. Звезды в ролях ординарных граждан - это аттракцион. Опытные маклеры день и ночь ведут борьбу за клиентов, желающих купить землю. Конкуренция обостряется с каждым днем. И когда неизвестные преступники проникают в офис и похищают важные документы, ситуация принимает неожиданный оборот. Теперь под подозрением все, у каждого есть повод для воровства.- -Качество: DTheaterRip
Формат: MKV
Видео кодек: H.264
Аудио кодек: AC3
Видео: 1280x548; 23.976 fps, 5475 kbps
Аудио:
1 - Dolby AC3; Rus; 48000Hz; 2ch; 448kbps [многоголосый закадровый]
2 - Dolby AC3; Rus; 48000Hz; 2ch; 192kbps [многоголосый закадровый от «CINEMA PRESTIGE»]
3 - DTS; Rus; 48000Hz; 6ch; 755kbps [Юрий Сербин] перевод без цензуры
4 - Dolby AC3; Rus; 48000Hz; 2ch; 192kbps [Андрей Гаврилов]
5 - DTS; Eng; 48000Hz; 6ch; 755kbps [оригинал]

Отчет MediaInfo

General
Complete name : E:\Glengarry.Glen.Ross\Glengarry.Glen.Ross.1992.720p.DTheaterRip.Rus.Eng.mkv
Format : Matroska
File size : 5.48 GiB
Duration : 1h 40mn
Overall bit rate : 7 815 Kbps
Encoded date : UTC 2010-09-07 01:30:44
Writing application : mkvmerge v2.4.0 ('Fumbling Towards Ecstasy') built on Oct 11 2008 20:13:15
Writing library : libebml v0.7.7 + libmatroska v0.8.1
Video
ID : 1
Format : AVC
Format/Info : Advanced Video Codec
Format profile : [email protected]
Format settings, CABAC : Yes
Format settings, ReFrames : 11 frames
Muxing mode : Container [email protected]
Codec ID : V_MPEG4/ISO/AVC
Duration : 1h 40mn
Bit rate : 5 319 Kbps
Nominal bit rate : 5 475 Kbps
Width : 1 280 pixels
Height : 548 pixels
Display aspect ratio : 2.35:1
Frame rate : 23.976 fps
Resolution : 24 bits
Colorimetry : 4:2:0
Scan type : Progressive
Bits/(Pixel*Frame) : 0.316
Stream size : 3.73 GiB (68%)
Writing library : x264 core 98 r1629 2e81ce1
Encoding settings : cabac=1 / ref=11 / deblock=1:-3:-3 / analyse=0x3:0x133 / me=tesa / subme=10 / psy=1 / psy_rd=1.10:0.00 / mixed_ref=1 / me_range=24 / chroma_me=1 / trellis=2 / 8x8dct=1 / cqm=0 / deadzone=21,11 / fast_pskip=0 / chroma_qp_offset=-2 / threads=12 / sliced_threads=0 / nr=0 / decimate=0 / interlaced=0 / constrained_intra=0 / bframes=6 / b_pyramid=2 / b_adapt=2 / b_bias=0 / direct=3 / weightb=1 / weightp=2 / keyint=250 / keyint_min=25 / scenecut=40 / intra_refresh=0 / rc_lookahead=40 / rc=2pass / mbtree=1 / bitrate=5475 / ratetol=1.0 / qcomp=0.60 / qpmin=10 / qpmax=51 / qpstep=4 / cplxblur=20.0 / qblur=0.5 / ip_ratio=1.40 / aq=1:0.85
Language : English
Audio #1
ID : 2
Format : AC-3
Format/Info : Audio Coding 3
Codec ID : A_AC3
Duration : 1h 40mn
Bit rate mode : Constant
Bit rate : 448 Kbps
Channel(s) : 2 channels
Channel positions : L R
Sampling rate : 48.0 KHz
Stream size : 322 MiB (6%)
Title : Zakadr Old
Language : Russian
Audio #2
ID : 3
Format : AC-3
Format/Info : Audio Coding 3
Codec ID : A_AC3
Duration : 1h 40mn
Bit rate mode : Constant
Bit rate : 192 Kbps
Channel(s) : 2 channels
Channel positions : L R
Sampling rate : 48.0 KHz
Stream size : 138 MiB (2%)
Title : Zakadr "CINEMA PRESTIGE"
Language : Russian
Audio #3
ID : 4
Format : DTS
Format/Info : Digital Theater Systems
Codec ID : A_DTS
Duration : 1h 40mn
Bit rate mode : Constant
Bit rate : 755 Kbps
Channel(s) : 6 channels
Channel positions : Front: L C R, Surround: L R, LFE
Sampling rate : 48.0 KHz
Resolution : 24 bits
Video delay : 1s 50ms
Stream size : 542 MiB (10%)
Title : Serbin DTS 5.1
Language : Russian
Audio #4
ID : 5
Format : AC-3
Format/Info : Audio Coding 3
Codec ID : A_AC3
Duration : 1h 40mn
Bit rate mode : Constant
Bit rate : 192 Kbps
Channel(s) : 2 channels
Channel positions : L R
Sampling rate : 48.0 KHz
Stream size : 138 MiB (2%)
Title : Gavrilov
Language : Russian
Audio #5
ID : 6
Format : DTS
Format/Info : Digital Theater Systems
Codec ID : A_DTS
Duration : 1h 40mn
Bit rate mode : Constant
Bit rate : 755 Kbps
Channel(s) : 6 channels
Channel positions : Front: L C R, Surround: L R, LFE
Sampling rate : 48.0 KHz
Resolution : 16 bits
Video delay : 1s 20ms
Stream size : 542 MiB (10%)
Title : Eng DTS 5.1
Language : English
Text #1
ID : 7
Format : ASS
Codec ID : S_TEXT/ASS
Codec ID/Info : Advanced Sub Station Alpha
Title : Rus
Language : Russian
Text #2
ID : 8
Format : ASS
Codec ID : S_TEXT/ASS
Codec ID/Info : Advanced Sub Station Alpha
Title : Eng
Language : English

Доп. информация

За DTheaterRip 720p спасибо BigTuna
Старый закадровый перевод снят с этого DVD, спасибо etonevam. Он и стоит первым приоритетом, т.к. роли озвучивают такие мастера закадра, как Александр Клюквин и Виктор Петров. Да и качество у дорожки получше...
Второй закадровый перевод, дорожка с Сербиным и субтитры отсюда, спасибо POD)I(EP. Итоговая DTS дорожка с Сербиным была получена путем микширования чистого голоса с оригиналом.
Перевод Гаврилова отсюда, спасибо velder Дорожка была отреставрирована - теперь там стерео-панорама (хоть она и небогатая)

Скриншоты




Создавать темы 25-Дек-2014 01:45

[Профиль]  [ЛС] 

Rayne

Стаж: 6 лет 5 месяцев

Сообщений: 36

Симпатии: 2

отлично, модеры, проверяйте скорей, буду качать

Создавать темы 25-Дек-2014 19:05

[Профиль]  [ЛС] 

Rayne

Стаж: 6 лет 5 месяцев

Сообщений: 36

Симпатии: 2

кстати, разделом ошиблись. этот фильм не входит и никогда не входил в топ 250 imdb

Создавать темы 25-Дек-2014 20:00

[Профиль]  [ЛС] 

Топик был перенесен из форума 250 лучших фильмов по версии IMDb в форум HD-AVC
Mixer City

Создавать темы 25-Дек-2014 20:15

 

Топик был перенесен из форума HD-AVC в форум Зарубежное кино
Mixer City

Создавать темы 25-Дек-2014 20:17

 

yahooo

Стаж: 5 лет 8 месяцев

Сообщений: 72

Симпатии: 7

дайте раздачу плиз, раздайте.
очень хочу посмотретть

Создавать темы 26-Окт-2016 15:48

[Профиль]  [ЛС] 
Показать сообщения:    
Ответить на тему

Текущее время: 23-Сен 05:08

Часовой пояс: UTC + 5



Вы не можете начинать темы
Вы не можете отвечать на сообщения
Вы не можете редактировать свои сообщения
Вы не можете удалять свои сообщения
Вы не можете голосовать в опросах
Вы не можете прикреплять файлы к сообщениям
Вы не можете скачивать файлы