Сен-Лоран. Стиль - это я / Saint Laurent (Бертран Бонелло) [2014 г., драма, биография, WEB-DLRip]

Ответить на тему
 

nizom_19 ®

Стаж: 4 года 5 месяцев

Сообщений: 60

Симпатии: 17

Сен-Лоран. Стиль - это я / Saint Laurent
Год выпуска: 2014
Страна: Франция, Бельгия
Жанр: Драма, биография
Продолжительность: 01:36:57
Перевод: Профессиональный (полное дублирование) [Чистый звук]
Режиссер: Бертран Бонелло / Bertrand Bonello
В ролях: Гаспар Ульель, Жереми Ренье, Луи Гаррель, Леа Сейду, Амира Касар, Эмилин Валаде, Хельмут Бергер, Миша Лекот, Валерия Бруни-Тедески, Валери Донзелли
Описание: Конец 1960-х, модный дом молодого Ива Сен-Лорана процветает, а сам дизайнер переживает пьянящий успех и отчаяние. На богемных парижских вечеринках, в Марракеше, в полотнах Уорхолла и книгах Пруста Сен-Лоран ищет и ответы на вопросы, и вдохновение. Но лишь такому утонченному режиссеру, как Бертран Бонелло, удается не только рассказать историю уникального модельера, но и создать портрет эпохи с её диалогами, непомерными развлечениями и умением любой ценой проживать каждый момент жизни красиво.
Качество: WEB-DLRip
Формат: AVI
Видео кодек: XviD
Аудио кодек: AC3
Видео: YV12 720(1024)x400 82 944 Kbps
Аудио: AC3(0x2000), 44 100 Гц, 2 Кан, 0 бит, 128 Kbps

Media Info

D:\kino\Saint.Laurent.2014.D.WEB-DLRip.1400Mb.avi
General
Complete name : D:\kino\Saint.Laurent.2014.D.WEB-DLRip.1400Mb.avi
Format : AVI
Format/Info : Audio Video Interleave
File size : 1.37 GiB
Duration : 2h 30mn
Overall bit rate : 1 309 Kbps
Writing application : VirtualDubMod 1.5.10.2 (build 2540/release)
Writing library : VirtualDubMod build 2540/release
Video #0
ID : 0
Format : MPEG-4 Visual
Format profile : Advanced [email protected]
Format settings, BVOP : 2
Format settings, QPel : No
Format settings, GMC : No warppoints
Format settings, Matrix : Default (MPEG)
Codec ID : XVID
Codec ID/Hint : XviD
Duration : 2h 30mn
Bit rate : 1 171 Kbps
Width : 720 pixels
Height : 400 pixels
Display aspect ratio : 16:9
Frame rate : 24.000 fps
Color space : YUV
Chroma subsampling : 4:2:0
Bit depth : 8 bits
Scan type : Progressive
Compression mode : Lossy
Bits/(Pixel*Frame) : 0.169
Stream size : 1.23 GiB (89%)
Writing library : XviD 1.2.1 (UTC 2008-12-04)
Audio #1
ID : 1
Format : AC-3
Format/Info : Audio Coding 3
Mode extension : CM (complete main)
Format settings, Endianness : Big
Codec ID : 2000
Duration : 2h 30mn
Bit rate mode : Constant
Bit rate : 128 Kbps
Channel(s) : 2 channels
Channel positions : Front: L R
Sampling rate : 44.1 KHz
Bit depth : 16 bits
Compression mode : Lossy
Stream size : 138 MiB (10%)
Alignment : Split accross interleaves
Interleave, duration : 42 ms (1.00 video frame)
Interleave, preload duration : 500 ms

Скриншоты





Последний раз редактировалось: nizom_19 (2014-12-26 21:57), всего редактировалось 3 раз(а)

Создавать темы 26-Дек-2014 20:34

[Профиль]  [ЛС] 

Mixer City

Стаж: 6 лет 10 месяцев

Сообщений: 754

Симпатии: 63

nizom_19, укажи качество в шапке и в тех. данных!

Создавать темы 26-Дек-2014 20:57

[Профиль]  [ЛС] 
Показать сообщения:    
Ответить на тему

Текущее время: 23-Окт 14:58

Часовой пояс: UTC + 5



Вы не можете начинать темы
Вы не можете отвечать на сообщения
Вы не можете редактировать свои сообщения
Вы не можете удалять свои сообщения
Вы не можете голосовать в опросах
Вы не можете прикреплять файлы к сообщениям
Вы не можете скачивать файлы