(Hard Rock) VA - Songs Of Led Zeppelin All Blues'd Up! - 2003, FLAC (tracks), lossless

Ответить на тему
 

Massageth ®

Стаж: 7 лет 1 месяц

Сообщений: 116

Симпатии: 15

VA - Songs Of Led Zeppelin-All Blues'd Up!- -Страна: Various | Жанр: Hard Rock | Год выпуска: 2003-Лейбл: Komax Licensing Ltd. | Номер по каталогу: KXCD021-Формат: FLAC (tracks) | Битрейт аудио: lossless | Наличие сканов в раздаче: Да-Продолжительность: 01:02:31-

Треклист


01. Trampled Underfoot - Eric Gales - (04:49)
02. Since I've Been Loving You - Otis Clay - (06:25)
03. Good Times, Bad Times - Carl Weathersby - (04:24)
04. Custard Pie (Revisited) - Matt Tutor with Eric Gales & Derek Trucks - (05:36)
05. Heartbreaker - Alvin Youngblood Hart - (05:40)
06. When The Levee Breaks (Part 2) - Magic Slim with John Cotton - (04:30)
07. Hey Hey (What Can I Do) - Chris Thomas King - (04:08)
08. I Can't Quit You Baby - Otis Rush with Eric Gales - (05:19)
09. Custard Pie - Eric Gales - (04:02)
10. When The Levee Breaks (Part 1) - Magic Slim & Billy Branch with James Cotton - (02:19)
11. You Need Love - Joe Louis Walker with James Cotton - (02:52)
12. Rock 'N' Roll - Clarence 'Gatemouth' Brown - (05:52)
13. Bring It On Home (Pt. 1) - Robert Lockwood Jr. - (02:59)
14. Bring It On Home (Pt. 2) - Robert Lockwood Jr. - (03:32)

Folder.auCDtect

-----------------------
DON'T MODIFY THIS FILE
-----------------------
PERFORMER: auCDtect Task Manager, ver. 1.5.1RC4 build 1.5.1.5
Copyright (c) 2008-2010 y-soft. All rights reserved
ANALYZER: auCDtect: CD records authenticity detector, version 0.8.2
Copyright (c) 2004 Oleg Berngardt. All rights reserved.
Copyright (c) 2004 Alexander Djourik. All rights reserved.
FILE: 14 - Robert Lockwood Jr. - Bring It On Home (Pt. 2).flac
Size: 24071915 Hash: 86793E4332016FA07A1D318CDEB6CD98 Accuracy: -m0
Conclusion: CDDA 100%
Signature: 30527A64CA462907C9321EF636DDDD801678FF02
FILE: 13 - Robert Lockwood Jr. - Bring It On Home (Pt. 1).flac
Size: 17208207 Hash: 2224756C735DC93DCCF515CF6D74A5E6 Accuracy: -m0
Conclusion: CDDA 99%
Signature: EE9BEC5CB5B2FAE23E37F08CCFF13DE57F2E0A02
FILE: 12 - Clarence ''Gatemouth'' Brown - Rock 'N' Roll.flac
Size: 40291156 Hash: 0327B4D9F2D376F338849E6DDDCBA431 Accuracy: -m0
Conclusion: CDDA 99%
Signature: 10EFE6AEFE4AF3AD0A4C9F6F11BEA56E8E68739E
FILE: 11 - Joe Louis Walker with James Cotton - You Need Love.flac
Size: 17235929 Hash: 262FA8AA9775EECEF53727A4CA206DC3 Accuracy: -m0
Conclusion: CDDA 100%
Signature: 6D6163E67BF52C270343D85DA022BFC7ADA90D8B
FILE: 10 - Magic Slim & Billy Branch with James Cotton - When The Levee Breaks (Part 1).flac
Size: 11067267 Hash: 6F9A8C6BAEBD118C738B34622695A0D9 Accuracy: -m0
Conclusion: CDDA 99%
Signature: 0456E42ED25A1BF6ECBC1C4D2D845202AC9BDABE
FILE: 09 - Eric Gales - Custard Pie.flac
Size: 20310414 Hash: 19C0DAE261FE4FA901D2E78F52A966E7 Accuracy: -m0
Conclusion: CDDA 100%
Signature: C386E4E80514BDF923D035AAC41024A7513C0968
FILE: 08 - Otis Rush with Eric Gales - I Can't Quit You Baby.flac
Size: 36216858 Hash: FB7C7F6F28CFB72D2397DB2F5E5703A6 Accuracy: -m0
Conclusion: CDDA 100%
Signature: E288A4A8FBEEE160E9BF5835BC79545A7780957E
FILE: 07 - Chris Thomas King - Hey Hey (What Can I Do).flac
Size: 27933340 Hash: B4561C8B80716486A00D851F3A2224A8 Accuracy: -m0
Conclusion: CDDA 100%
Signature: 3AFA9C9C00CB4D93968C32B53AAF8A95EDF2D471
FILE: 06 - Magic Slim with John Cotton - When The Levee Breaks (Part 2).flac
Size: 30112448 Hash: 87912126C8DA183E01CFD79B535DEE80 Accuracy: -m0
Conclusion: CDDA 100%
Signature: 60C669EA54D47A5C27A2F7FF4A70AF3CDFEBCB9A
FILE: 05 - Alvin Youngblood Hart - Heartbreaker.flac
Size: 37309117 Hash: 15AE77A2E15110787BFA74E7934DBAF5 Accuracy: -m0
Conclusion: CDDA 100%
Signature: 256721E2BB7C6D09BD61BBD61AFF0F354077A5AB
FILE: 04 - Matt Tutor with Eric Gales & Derek Trucks - Custard Pie (Revisited).flac
Size: 39968645 Hash: 2AB9BAF1578E42A071A7085D1E353320 Accuracy: -m0
Conclusion: CDDA 100%
Signature: DB2118FB66D7D36A6F4A5D1E7D32685248F5D29B
FILE: 03 - Carl Weathersby - Good Times, Bad Times.flac
Size: 30555063 Hash: CC14B0A4DCEC46E4A7CD6F9BACB6E7C6 Accuracy: -m0
Conclusion: CDDA 100%
Signature: DB1A9FCFDA3958FC7154BF4864B071585BB9CDB7
FILE: 02 - Otis Clay - Since I've Been Loving You.flac
Size: 40081002 Hash: 5D36D796EAB099C5760B17A839175AFD Accuracy: -m0
Conclusion: CDDA 100%
Signature: FB13486E5CA0DBE189978AF15F40C50A364580E1
FILE: 01 - Eric Gales - Trampled Underfoot.flac
Size: 33766491 Hash: CE59B4F7C66F540734C3B391AFF3D0A2 Accuracy: -m0
Conclusion: CDDA 100%
Signature: A499D9D258E90EE98552ED9873AE2B3F7938397C

ОтчётExact Audio Copy

Exact Audio Copy V1.0 beta 1 from 15. November 2010
EAC extraction logfile from 15. February 2011, 16:49
Various Artists / Songs Of Led Zeppelin - All Blues'd Up!
Used drive : ASUS DRW-24B1ST Adapter: 1 ID: 0
Read mode : Secure
Utilize accurate stream : Yes
Defeat audio cache : Yes
Make use of C2 pointers : No
Read offset correction : 6
Overread into Lead-In and Lead-Out : No
Fill up missing offset samples with silence : Yes
Delete leading and trailing silent blocks : No
Null samples used in CRC calculations : Yes
Used interface : Native Win32 interface for Win NT & 2000
Gap handling : Appended to previous track
Used output format : User Defined Encoder
Selected bitrate : 1024 kBit/s
Quality : High
Add ID3 tag : No
Command line compressor : C:\Program Files\Exact Audio Copy\Flac\flac.exe
Additional command line options : -8 -V -T "ARTIST=%a" -T "TITLE=%t" -T "ALBUM=%g" -T "DATE=%y" -T "TRACKNUMBER=%n" -T "TOTALTRACKS=%x" -T "GENRE=%m" -T "ALBUMARTIST=%v" -T "ALBUM ARTIST=%v" -T "COMMENT=EAC Secure Mode, Test & Copy, AccurateRip, FLAC -8" %s
TOC of the extracted CD
Track | Start | Length | Start sector | End sector
---------------------------------------------------------
1 | 0:00.00 | 4:49.03 | 0 | 21677
2 | 4:49.03 | 6:25.09 | 21678 | 50561
3 | 11:14.12 | 4:24.18 | 50562 | 70379
4 | 15:38.30 | 5:36.14 | 70380 | 95593
5 | 21:14.44 | 5:40.26 | 95594 | 121119
6 | 26:54.70 | 4:30.48 | 121120 | 141417
7 | 31:25.43 | 4:08.32 | 141418 | 160049
8 | 35:34.00 | 5:19.41 | 160050 | 184015
9 | 40:53.41 | 4:02.47 | 184016 | 202212
10 | 44:56.13 | 2:19.37 | 202213 | 212674
11 | 47:15.50 | 2:52.50 | 212675 | 225624
12 | 50:08.25 | 5:52.05 | 225625 | 252029
13 | 56:00.30 | 2:59.14 | 252030 | 265468
14 | 58:59.44 | 3:32.12 | 265469 | 281380
Track 1
Filename E:\AMANASZ\Various Artists - Songs Of Led Zeppelin - All Blues'd Up! (2003) [FLAC]\01 - Eric Gales - Trampled Underfoot.wav
Pre-gap length 0:00:02.00
Peak level 99.8 %
Extraction speed 1.9 X
Track quality 100.0 %
Test CRC D023FC83
Copy CRC D023FC83
Accurately ripped (confidence 2) [929BB15D]
Copy OK
Track 2
Filename E:\AMANASZ\Various Artists - Songs Of Led Zeppelin - All Blues'd Up! (2003) [FLAC]\02 - Otis Clay - Since I've Been Loving You.wav
Pre-gap length 0:00:01.44
Peak level 99.9 %
Extraction speed 2.2 X
Track quality 100.0 %
Test CRC 46CC7485
Copy CRC 46CC7485
Accurately ripped (confidence 2) [E6837B5E]
Copy OK
Track 3
Filename E:\AMANASZ\Various Artists - Songs Of Led Zeppelin - All Blues'd Up! (2003) [FLAC]\03 - Carl Weathersby - Good Times, Bad Times.wav
Pre-gap length 0:00:01.45
Peak level 99.9 %
Extraction speed 2.4 X
Track quality 100.0 %
Test CRC 6D62575F
Copy CRC 6D62575F
Accurately ripped (confidence 2) [1AB429C5]
Copy OK
Track 4
Filename E:\AMANASZ\Various Artists - Songs Of Led Zeppelin - All Blues'd Up! (2003) [FLAC]\04 - Matt Tutor with Eric Gales & Derek Trucks - Custard Pie (Revisited).wav
Pre-gap length 0:00:01.44
Peak level 99.9 %
Extraction speed 2.7 X
Track quality 100.0 %
Test CRC 90BEAC94
Copy CRC 90BEAC94
Accurately ripped (confidence 2) [D15BA97B]
Copy OK
Track 5
Filename E:\AMANASZ\Various Artists - Songs Of Led Zeppelin - All Blues'd Up! (2003) [FLAC]\05 - Alvin Youngblood Hart - Heartbreaker.wav
Peak level 99.9 %
Extraction speed 2.3 X
Track quality 99.9 %
Test CRC DD1C6C57
Copy CRC DD1C6C57
Accurately ripped (confidence 2) [4C31D525]
Copy OK
Track 6
Filename E:\AMANASZ\Various Artists - Songs Of Led Zeppelin - All Blues'd Up! (2003) [FLAC]\06 - Magic Slim with John Cotton - When The Levee Breaks (Part 2).wav
Pre-gap length 0:00:01.44
Peak level 99.9 %
Extraction speed 2.2 X
Track quality 99.9 %
Test CRC DB9E7157
Copy CRC DB9E7157
Accurately ripped (confidence 2) [343B9995]
Copy OK
Track 7
Filename E:\AMANASZ\Various Artists - Songs Of Led Zeppelin - All Blues'd Up! (2003) [FLAC]\07 - Chris Thomas King - Hey Hey (What Can I Do).wav
Pre-gap length 0:00:01.45
Peak level 100.0 %
Extraction speed 3.1 X
Track quality 100.0 %
Test CRC E4F2A3BC
Copy CRC E4F2A3BC
Accurately ripped (confidence 2) [A3D7D003]
Copy OK
Track 8
Filename E:\AMANASZ\Various Artists - Songs Of Led Zeppelin - All Blues'd Up! (2003) [FLAC]\08 - Otis Rush with Eric Gales - I Can't Quit You Baby.wav
Peak level 99.8 %
Extraction speed 3.3 X
Track quality 100.0 %
Test CRC CF122917
Copy CRC CF122917
Accurately ripped (confidence 2) [A7E7BB89]
Copy OK
Track 9
Filename E:\AMANASZ\Various Artists - Songs Of Led Zeppelin - All Blues'd Up! (2003) [FLAC]\09 - Eric Gales - Custard Pie.wav
Peak level 84.4 %
Extraction speed 3.3 X
Track quality 100.0 %
Test CRC 7C32F8F7
Copy CRC 7C32F8F7
Accurately ripped (confidence 2) [99082C68]
Copy OK
Track 10
Filename E:\AMANASZ\Various Artists - Songs Of Led Zeppelin - All Blues'd Up! (2003) [FLAC]\10 - Magic Slim & Billy Branch with James Cotton - When The Levee Breaks (Part 1).wav
Pre-gap length 0:00:00.45
Peak level 79.2 %
Extraction speed 3.1 X
Track quality 100.0 %
Test CRC B0785AFB
Copy CRC B0785AFB
Accurately ripped (confidence 2) [4B1D3154]
Copy OK
Track 11
Filename E:\AMANASZ\Various Artists - Songs Of Led Zeppelin - All Blues'd Up! (2003) [FLAC]\11 - Joe Louis Walker with James Cotton - You Need Love.wav
Peak level 99.9 %
Extraction speed 2.2 X
Track quality 99.9 %
Test CRC D464D094
Copy CRC D464D094
Accurately ripped (confidence 2) [54549203]
Copy OK
Track 12
Filename E:\AMANASZ\Various Artists - Songs Of Led Zeppelin - All Blues'd Up! (2003) [FLAC]\12 - Clarence ''Gatemouth'' Brown - Rock 'N' Roll.wav
Peak level 99.9 %
Extraction speed 3.8 X
Track quality 100.0 %
Test CRC 9C9E5436
Copy CRC 9C9E5436
Accurately ripped (confidence 2) [550B971C]
Copy OK
Track 13
Filename E:\AMANASZ\Various Artists - Songs Of Led Zeppelin - All Blues'd Up! (2003) [FLAC]\13 - Robert Lockwood Jr. - Bring It On Home (Pt. 1).wav
Peak level 88.3 %
Extraction speed 3.5 X
Track quality 100.0 %
Test CRC 0CBF7241
Copy CRC 0CBF7241
Accurately ripped (confidence 2) [A83887CF]
Copy OK
Track 14
Filename E:\AMANASZ\Various Artists - Songs Of Led Zeppelin - All Blues'd Up! (2003) [FLAC]\14 - Robert Lockwood Jr. - Bring It On Home (Pt. 2).wav
Pre-gap length 0:00:01.45
Peak level 99.9 %
Extraction speed 3.7 X
Track quality 100.0 %
Test CRC 7F5C88CD
Copy CRC 7F5C88CD
Track not present in AccurateRip database
Copy OK
13 track(s) accurately ripped
1 track(s) not present in the AccurateRip database
Some tracks could not be verified as accurate
No errors occurred
End of status report
==== Log checksum EF43D4068F25AD3A0C8D58855F41786236C9F9C2E6E42196C5AAA4AFCFEA2878 ====

Создавать темы 27-Дек-2014 18:40

[Профиль]  [ЛС] 
Показать сообщения:    
Ответить на тему

Текущее время: 13-Дек 18:09

Часовой пояс: UTC + 5



Вы не можете начинать темы
Вы не можете отвечать на сообщения
Вы не можете редактировать свои сообщения
Вы не можете удалять свои сообщения
Вы не можете голосовать в опросах
Вы не можете прикреплять файлы к сообщениям
Вы не можете скачивать файлы