Хрустальные черепа / Crystal Skulls (Тодор Чапканов) [2014 г., фантастика, приключения, HDTVRip]

Ответить на тему
 

Старый Дядька ®

Стаж: 5 лет

Сообщений: 566

Симпатии: 400

Хрустальные черепа / Crystal Skulls-- Год выпуска: 2014
Страна: США
Жанр: фантастика, приключения
Продолжительность: 1:23:45
Перевод: Профессиональный (многоголосый, закадровый)-Режиссер: Тодор Чапканов-В ролях: Ричард Берджи, Венди Гленн, Сэм Редфорд, Дэвид Ринтул, Мэтт Риппи, Хью Фрейзер, Велислав Павлов, Христо Митцков, Terry Randall, Анджела Родель, ...-Описание: 2020 год. Солнце вот-вот провалится в черную дыру. Приближается неминуемый конец света. По всему миру экстренно строятся спасительные ковчеги для тех немногих, кто сможет покинуть Землю и отправиться на поиски другой планеты, пригодной для жизни. Единственная надежда на спасение может находиться среди руин древнего храма майя.-Премьера (мир): 4 сентября 2014
Премьера (РФ): 12 августа 2014
Возраст: зрителям, достигшим 12 лет-Рейтинг:
 -Качество: HDTVRip
Формат: AVI
Видео кодек: XviD
Аудио кодек: AC3-Видео: 1943 Кбит/сек, 720х400 пикселей (16:9), 25,000 кадров/сек
Аудио: 384 Кбит/сек, 2 канала, 48,0 КГц

Mediainfo:

Общее
Полное имя : F:\Фильмы\Хрустальные черепа.2014.PM.HDTVRip.(1,37).avi
Формат : AVI
Формат/Информация : Audio Video Interleave
Размер файла : 1,37 Гбайт
Продолжительность : 1 ч. 23 м.
Общий поток : 2337 Кбит/сек
Программа кодирования : VirtualDubMod 1.5.10.2 (build 2540/release)
Библиотека кодирования : VirtualDubMod build 2540/release
Видео
Идентификатор : 0
Формат : MPEG-4 Visual
Профиль формата : Advanced [email protected]
Параметр BVOP формата : 2
Параметр QPel формата : Нет
Параметр GMC формата : Без точки перехода
Параметр матрицы формата : Default (MPEG)
Идентификатор кодека : XVID
Идентификатор кодека/Подсказка : XviD
Продолжительность : 1 ч. 23 м.
Битрейт : 1943 Кбит/сек
Ширина : 720 пикселей
Высота : 400 пикселей
Соотношение сторон : 16:9
Частота кадров : 25,000 кадров/сек
Цветовое пространство : YUV
Субдискретизация насыщенности : 4:2:0
Битовая глубина : 8 бит
Тип развёртки : Прогрессивная
Метод сжатия : С потерями
Бит/(Пиксели*Кадры) : 0.270
Размер потока : 1,14 Гбайт (83%)
Библиотека кодирования : XviD 1.2.1 (UTC 2008-12-04)
Аудио
Идентификатор : 1
Формат : AC-3
Формат/Информация : Audio Coding 3
Расширение режима : CM (complete main)
Параметр Endianness формата : Big
Идентификатор кодека : 2000
Продолжительность : 1 ч. 23 м.
Вид битрейта : Постоянный
Битрейт : 384 Кбит/сек
Каналы : 2 канала
Расположение каналов : Front: L R
Частота : 48,0 КГц
Битовая глубина : 16 бит
Метод сжатия : С потерями
Размер потока : 230 Мбайт (16%)
Выравнивание : Разделение по промежуткам
Продолжительность промежутка : 40 мс. (1,00 видеокадр)
Время предзагрузки промежутка : 500 мс.

Скриншоты:





Создавать темы 27-Дек-2014 19:20

[Профиль]  [ЛС] 

Vseznayka

Стаж: 6 лет 8 месяцев

Сообщений: 4

чота рейтинг предупреждает!!!!

Создавать темы 28-Дек-2014 10:25

[Профиль]  [ЛС] 

abdukarim

Стаж: 6 лет 8 месяцев

Сообщений: 144

Симпатии: 18

ТВ3

Создавать темы 28-Дек-2014 14:47

[Профиль]  [ЛС] 

Яна28

Стаж: 4 года 8 месяцев

Сообщений: 39

Симпатии: 2

valeri-mvv-101, спасибо Вам за фильм! И всех с Наступающим Новым годом! :)

Создавать темы 29-Дек-2014 07:29

[Профиль]  [ЛС] 

tayat

Стаж: 4 года 4 месяца

Сообщений: 21

Симпатии: 5

906125ТВ3
И че я вам не поверил... ТВ3 в чистом виде!

Создавать темы 30-Дек-2014 22:54

[Профиль]  [ЛС] 

Evropa

Стаж: 6 лет 8 месяцев

Сообщений: 174

Симпатии: 30

Правда, что хрустальные черепа считается самым загадочным тайном XX-века.
Инфо:
http://lah.ru/fotoarh/oskolki/k-cherep.htm
http://www.aferizm.ru/chydesa/kristal_skills.htm
http://www.dni.ru/society/2012/5/15/233455.html
http://planeta.moy.su/blog/13_j_khrustalnyj_cherep_.../2012-05-14-8365

Создавать темы 01-Янв-2015 23:58

[Профиль]  [ЛС] 
Показать сообщения:    
Ответить на тему

Текущее время: 19-Сен 22:14

Часовой пояс: UTC + 5



Вы не можете начинать темы
Вы не можете отвечать на сообщения
Вы не можете редактировать свои сообщения
Вы не можете удалять свои сообщения
Вы не можете голосовать в опросах
Вы не можете прикреплять файлы к сообщениям
Вы не можете скачивать файлы