Новая подружка / Une nouvelle amie (Франсуа Озон) [2014 г., драма, WEB-DLRip] [чистый звук]

Ответить на тему
 

Старый Дядька ®

Стаж: 4 года 11 месяцев

Сообщений: 566

Симпатии: 400

Новая подружка / Une nouvelle amie-- Год выпуска: 2014
Страна: Франция
Жанр: драма
Продолжительность: 01:48:01
Перевод: Дублированный [чистый звук]-Режиссер: Франсуа Озон-В ролях: Ромен Дюрис, Анаис Демустье, Рафаэль Персонас, Изильд Ле Беско, Аврора Клеман, Жан-Клод Боль-Редда, Брюно Перар, Клодин Чатель, Анита Жилье, Алекс Фонджа-Описание: Клэр переживает смерть лучшей подруги — они были неразлучны с детства, делили радости и переживания отрочества, одновременно вышли замуж. Убитый горем вдовец предлагает Клэр остроумный способ выбраться из депрессии…-Премьера (мир): 6 сентября 2014
Премьера (РФ): 13 ноября 2014, «A-One Films», «Наше Кино»
Возраст: зрителям, достигшим 18 лет-Рейтинг:
 -Качество: WEB-DLRip
Формат: AVI
Видео кодек: XviD
Аудио кодек: AC3-Видео: 1734 Кбит/сек, 720х384 пикселей (1,85:1), 25,000 кадров/сек
Аудио: 192 Кбит/сек, 2 канала, 48,0 КГц

Mediainfo:

Общее
Полное имя : F:\Фильмы\Новая подружка.2014.Ч.WEB-DLRip.(1,46).avi
Формат : AVI
Формат/Информация : Audio Video Interleave
Размер файла : 1,46 Гбайт
Продолжительность : 1 ч. 48 м.
Общий поток : 1936 Кбит/сек
Программа кодирования : VirtualDubMod 1.5.10.2 (build 2540/release)
Библиотека кодирования : VirtualDubMod build 2540/release
Видео
Идентификатор : 0
Формат : MPEG-4 Visual
Профиль формата : Advanced [email protected]
Параметр BVOP формата : 2
Параметр QPel формата : Нет
Параметр GMC формата : Без точки перехода
Параметр матрицы формата : Default (MPEG)
Идентификатор кодека : XVID
Идентификатор кодека/Подсказка : XviD
Продолжительность : 1 ч. 48 м.
Битрейт : 1734 Кбит/сек
Ширина : 720 пикселей
Высота : 384 пикселя
Соотношение сторон : 1,85:1
Частота кадров : 25,000 кадров/сек
Цветовое пространство : YUV
Субдискретизация насыщенности : 4:2:0
Битовая глубина : 8 бит
Тип развёртки : Прогрессивная
Метод сжатия : С потерями
Бит/(Пиксели*Кадры) : 0.251
Размер потока : 1,31 Гбайт (90%)
Библиотека кодирования : XviD 1.2.1 (UTC 2008-12-04)
Аудио
Идентификатор : 1
Формат : AC-3
Формат/Информация : Audio Coding 3
Расширение режима : CM (complete main)
Параметр Endianness формата : Big
Идентификатор кодека : 2000
Продолжительность : 1 ч. 48 м.
Вид битрейта : Постоянный
Битрейт : 192 Кбит/сек
Каналы : 2 канала
Расположение каналов : Front: L R
Частота : 48,0 КГц
Битовая глубина : 16 бит
Метод сжатия : С потерями
Размер потока : 148 Мбайт (10%)
Выравнивание : Разделение по промежуткам
Продолжительность промежутка : 40 мс. (1,00 видеокадр)
Время предзагрузки промежутка : 500 мс.

Скриншоты





Создавать темы 27-Дек-2014 20:29

[Профиль]  [ЛС] 
Показать сообщения:    
Ответить на тему

Текущее время: 18-Авг 19:39

Часовой пояс: UTC + 5



Вы не можете начинать темы
Вы не можете отвечать на сообщения
Вы не можете редактировать свои сообщения
Вы не можете удалять свои сообщения
Вы не можете голосовать в опросах
Вы не можете прикреплять файлы к сообщениям
Вы не можете скачивать файлы