Маша и медведь (Машкины страшилки) / Маша и медведь (Машкины страшилки) (Олег Ужинов, Денис Червяцов, Олег Кузовков) [2014 - 2015 г.г., Мультсериал, детский, приключения, комедия, DVDRip]

Ответить на тему
 

igor1968 ®

Стаж: 5 лет 8 месяцев

Сообщений: 366

Симпатии: 197

Маша и медведь (Машкины страшилки) / Маша и медведь (Машкины страшилки) Год выпуска: 2014- 2015
Страна:
Жанр: Мультсериал, детский, приключения, комедия
Продолжительность: ~00.05.00
Перевод: Не требуется
Режиссер: Олег Ужинов, Денис Червяцов, Олег Кузовков
В ролях: Алина Кукушкина, Эдуард Назаров, Борис Кутневич
Новый проект студии "Анимаккорд" - "Машкины страшилки"... Все дети боятся темноты. Маша раньше тоже так её боялась, что приходилось ей по ночам с фонариком сидеть! Но однажды Маша придумала сказочку про маленького лесного жучка, который тоже боялся темноты... Трепещите! Маша взялась за новый жанр - теперь она рассказывает страшилки!
-

Список серий

01. Про жучка
02. Про мальчика
03. Про чудовищ
-Добавлена 3 серия-

Внимание! Раздача ведётся путём добавления новых серий


Внимание! Раздача ведётся путём добавления новых серий; при каждом добавлении создётся новый торрент. Чтобы начать докачку новой серии, пользователям необходимо сделать следующее:
1) остановить скачивание,
2) удалить старый торрент у себя из клиента (старые серии удалять не надо),
3) скачать новый торрент и запустить его у себя в клиенте вместо старого, при этом указать клиенту путь в старую папку куда и должно происходить скачивание новых серий.
Ваш клиент при этом должен произвести хеширование (проверку) старой папки (если не производит сам - помогите ему сделать это), и будет докачивать только те серии которых у вас ещё нет. Старые серии при этом не удаляются, а продолжают раздаваться!
Eсли вы уже удалили старые серии, то предотвратить повторную закачку старых серий можно, отжав галочку в соответсвующих местах при запуске нового торрента.
-Качество: DVDRip
Формат:AVI
Видео кодек: XviD
Аудио кодек: AC3
Видео: 720x400 (1.80:1), 25 fps, XviD build 50 ~2020 kbps avg, 0.28 bit/pixel
Аудио: 48 kHz, AC3 Dolby Digital, 2/0 (L,R) ch, ~192.00 kbps avg
-

MediaInfo


General
Complete name : Mashini.strashilki.DVDRip.XviD.2014\02. Про мальчика.avi
Format : AVI
Format/Info : Audio Video Interleave
File size : 90.0 MiB
Duration : 5mn 39s
Overall bit rate : 2 222 Kbps
Writing application : VirtualDubMod 1.5.10.3 | www.virtualdub-fr.org || (build 2550/release)
Writing library : VirtualDub build 35491/release
Video
ID : 0
Format : MPEG-4 Visual
Format profile : Advanced [email protected]
Format settings, BVOP : 1
Format settings, QPel : No
Format settings, GMC : No warppoints
Format settings, Matrix : Custom
Codec ID : XVID
Codec ID/Hint : XviD
Duration : 5mn 39s
Bit rate : 2 020 Kbps
Width : 720 pixels
Height : 400 pixels
Display aspect ratio : 16:9
Frame rate : 25.000 fps
Color space : YUV
Chroma subsampling : 4:2:0
Bit depth : 8 bits
Scan type : Progressive
Compression mode : Lossy
Bits/(Pixel*Frame) : 0.281
Stream size : 81.8 MiB (91%)
Writing library : XviD 1.2.1 (UTC 2008-12-04)
Audio
ID : 1
Format : AC-3
Format/Info : Audio Coding 3
Mode extension : CM (complete main)
Format settings, Endianness : Big
Codec ID : 2000
Duration : 5mn 39s
Bit rate mode : Constant
Bit rate : 192 Kbps
Channel count : 2 channels
Channel positions : Front: L R
Sampling rate : 48.0 KHz
Bit depth : 16 bits
Compression mode : Lossy
Delay relative to video : 1s 550ms
Stream size : 7.78 MiB (9%)
Alignment : Split accross interleaves
Interleave, duration : 40 ms (1.00 video frame)
Interleave, preload duration : 500 ms
-

Скриншоты








Последний раз редактировалось: igor1968 (2015-03-15 01:28), всего редактировалось 5 раз(а)

Создавать темы 27-Дек-2014 21:48

[Профиль]  [ЛС] 

djek

Стаж: 5 лет 11 месяцев

Сообщений: 90

Симпатии: 4

не машины а машкины

Создавать темы 27-Дек-2014 23:06

[Профиль]  [ЛС] 

igor1968 ®

Стаж: 5 лет 8 месяцев

Сообщений: 366

Симпатии: 197

905993не машины а машкины
Не увидел - исправил ( спасибо )

Создавать темы 27-Дек-2014 23:13

[Профиль]  [ЛС] 

yandeh_

Стаж: 4 года 4 месяца

Сообщений: 47

Симпатии: 7

когда продолжение?

Создавать темы 26-Фев-2015 19:33

[Профиль]  [ЛС] 

igor1968 ®

Стаж: 5 лет 8 месяцев

Сообщений: 366

Симпатии: 197

Добавлена 3 серия

Создавать темы 15-Мар-2015 00:59

[Профиль]  [ЛС] 
Показать сообщения:    
Ответить на тему

Текущее время: 19-Ноя 08:00

Часовой пояс: UTC + 5



Вы не можете начинать темы
Вы не можете отвечать на сообщения
Вы не можете редактировать свои сообщения
Вы не можете удалять свои сообщения
Вы не можете голосовать в опросах
Вы не можете прикреплять файлы к сообщениям
Вы не можете скачивать файлы