Кровь с молоком (Александр Хван) [2014 г., комедия, мелодрама, SATRip]

Ответить на тему
 

Старый Дядька ®

Стаж: 5 лет 2 месяца

Сообщений: 566

Симпатии: 400

Кровь с молоком-- Год выпуска: 2014
Страна: Россия
Жанр: комедия, мелодрама
Продолжительность: 01:35:20
Перевод: не тебуется-Режиссер: Александр Хван-В ролях: Ольга Фадеева, Андрей Фролов, Яна Крайнова, Владислав Дунаев, Михаил Владимиров, Илья Коробко, Илья Исаев, Александр Обласов, Николай Лунин, Михаил Скачков-Описание: Евгения, столичная женщина с сильным характером, работает начальницей следственного отдела. После развода она выстроила защитный «панцирь» и не может найти достойного спутника. Костя — дояр на ферме в маленькой деревеньке. Его личная жизнь тоже не ладится, и, кажется, не предвидится никаких перемен. Волей случая герои знакомятся на «Свидании вслепую», где Женя представляется воспитательницей детсада, а Костя — богатым предпринимателем. Обман влечет за собой немало казусов и противоречий, и чем дальше, тем сложнее оказывается выпутаться из него..-Премьера (мир): 5 сентября 2014
Возраст: зрителям, достигшим 12 лет-Рейтинг:
 -Качество: SATRip
Формат: AVI
Видео кодек: XviD
Аудио кодек: AC3-Видео: 1800 Кбит/сек, 720х400 пикселей (16:9), 25,000 кадров/сек
Аудио: 192 Кбит/сек, 2 канала, 48,0 КГц

Mediainfo:

Общее
Полное имя : F:\Фильмы\Кровь с молоком.2014.O.SATRip.(1.33).avi
Формат : AVI
Формат/Информация : Audio Video Interleave
Размер файла : 1,33 Гбайт
Продолжительность : 1 ч. 35 м.
Общий поток : 2002 Кбит/сек
Программа кодирования : VirtualDubMod 1.5.10.3 | www.virtualdub-fr.org || (build 2550/release)
Библиотека кодирования : VirtualDubMod build 2550/release
Видео
Идентификатор : 0
Формат : MPEG-4 Visual
Профиль формата : Advanced [email protected]
Параметр BVOP формата : 2
Параметр QPel формата : Нет
Параметр GMC формата : Без точки перехода
Параметр матрицы формата : Default (H.263)
Идентификатор кодека : XVID
Идентификатор кодека/Подсказка : XviD
Продолжительность : 1 ч. 35 м.
Битрейт : 1800 Кбит/сек
Ширина : 720 пикселей
Высота : 400 пикселей
Соотношение сторон : 16:9
Частота кадров : 25,000 кадров/сек
Цветовое пространство : YUV
Субдискретизация насыщенности : 4:2:0
Битовая глубина : 8 бит
Тип развёртки : Прогрессивная
Метод сжатия : С потерями
Бит/(Пиксели*Кадры) : 0.250
Размер потока : 1,20 Гбайт (90%)
Библиотека кодирования : XviD 1.2.1 (UTC 2008-12-04)
Аудио
Идентификатор : 1
Формат : AC-3
Формат/Информация : Audio Coding 3
Расширение режима : CM (complete main)
Параметр Endianness формата : Big
Идентификатор кодека : 2000
Продолжительность : 1 ч. 35 м.
Вид битрейта : Постоянный
Битрейт : 192 Кбит/сек
Каналы : 2 канала
Расположение каналов : Front: L R
Частота : 48,0 КГц
Битовая глубина : 16 бит
Метод сжатия : С потерями
Размер потока : 131 Мбайт (10%)
Выравнивание : Разделение по промежуткам
Продолжительность промежутка : 40 мс. (1,00 видеокадр)
Время предзагрузки промежутка : 500 мс.

Скриншоты





Создавать темы 27-Дек-2014 23:37

[Профиль]  [ЛС] 
Показать сообщения:    
Ответить на тему

Текущее время: 23-Ноя 08:52

Часовой пояс: UTC + 5



Вы не можете начинать темы
Вы не можете отвечать на сообщения
Вы не можете редактировать свои сообщения
Вы не можете удалять свои сообщения
Вы не можете голосовать в опросах
Вы не можете прикреплять файлы к сообщениям
Вы не можете скачивать файлы