Военные потери / Casualties of War (Брайан Де Пальма) [1989 г., драма, военный, WEB-DL 720p] [Расширенная версия / Extended Cut] DVO + AVO (Живов) + Subs (Rus, Eng) + Original (Eng)

Ответить на тему
 

lotto ®

Стаж: 7 лет 8 месяцев

Сообщений: 221

Симпатии: 409

Военные потери / Casualties of War
«Some Soldiers take things too far»
-- Год выпуска: 1989
Страна: США
Жанр: драма, военный
Продолжительность: 01:59:06
Перевод: Профессиональный (двухголосый)--Режиссер: Брайан Де Пальма
В ролях: Майкл Дж. Фокс, Шон Пенн, Дон Харви, Джон Си Райли, Джон Легуизамо, Тхюй Тху Ле, Винг Реймз, Дейл Дай, Джек Гуолтни, Эрик Кинг-- --Описание: Фильм основан на реальной истории, случившейся со взводом американских солдат во время войны во Вьетнаме. Рядовой Эрикссон становится свидетелем ужасного изнасилования и убийства вьетнамской девушки во время боевой операции.
Отстаивая свою позицию, он вынужден противостоять всему взводу и его командиру — сержанту Месерву — человеку, давно забывшему о таком чувстве, как сострадание…--Качество: WEB-DL 720p
Формат: MKV
Видео кодек: H.264
Аудио кодек: AC3
Видео: 1280x530, 3898 kbps, 23.976 fps
Аудио 1: 48 kHz, 6 ch, 448 kbps (русский, двухголосый) со вставками одноголосого
Аудио 2: 48 kHz, 2 ch, 192 kbps (русский, авторский) Юрий Живов со вставками одноголосого
Аудио 3: 48 kHz, 6 ch, 384 kbps (английский)
Cубтитры: русские, английские
Перевод расширенных эпизодов: Lentyai80
Озвучка расширенных эпизодов: одноголосый закадровый iDimo

MediaInfo

General
Unique ID : 250308333736563915769505388618714114850 (0xBC4FA1ABC5CA9F579CB2213B403EEB22)
Complete name : \Casualties of War.[Extended].1989.WEB-DL 720p.mkv
Format : Matroska
Format version : Version 4 / Version 2
File size : 4.18 GiB
Duration : 1h 59mn
Overall bit rate : 5 022 Kbps
Movie name : Casualties of War
Encoded date : UTC 2014-12-29 04:53:23
Writing application : mkvmerge v6.1.0 ('Old Devil') built on Mar 4 2013 09:10:42
Writing library : libebml v1.3.0 + libmatroska v1.4.0
Attachements : cover.jpg
ARTIST : Майкл Дж. Фокс, Шон Пенн, Дон Харви, Джон Си Райли, Джон Легуизамо и др.
DIRECTOR : Брайан Де Пальма
DATE_RELEASED : 1956
SUMMARY : for tas-ix.net
GENRE : мюзикл, мелодрама, комедия
DESCRIPTION : Фильм снят по мотивам романа Дэниэла Лэнга «Военные потери» (Casualties of War, 1969), который он написал после своей же основанной на реальных событиях статьи для издания The New Yorker.
SYNOPSIS : Фильм основан на реальной истории, случившейся со взводом американских солдат во время войны во Вьетнаме. Рядовой Эрикссон становится свидетелем ужасного изнасилования и убийства вьетнамской девушки во время боевой операции. / / Отстаивая свою позицию, он вынужден противостоять всему взводу и его командиру — сержанту Месерву — человеку, давно забывшему о таком чувстве, как сострадание…
Video
ID : 1
Format : AVC
Format/Info : Advanced Video Codec
Format profile : [email protected]
Format settings, CABAC : No
Format settings, ReFrames : 2 frames
Codec ID : V_MPEG4/ISO/AVC
Duration : 1h 59mn
Bit rate : 3 898 Kbps
Width : 1 280 pixels
Height : 530 pixels
Display aspect ratio : 2.40:1
Frame rate mode : Constant
Frame rate : 23.976 fps
Color space : YUV
Chroma subsampling : 4:2:0
Bit depth : 8 bits
Scan type : Progressive
Bits/(Pixel*Frame) : 0.240
Stream size : 3.24 GiB (78%)
Language : English
Default : No
Forced : No
Color primaries : BT.709
Transfer characteristics : BT.709
Matrix coefficients : BT.709
Color range : Limited
Audio #1
ID : 2
Format : AC-3
Format/Info : Audio Coding 3
Mode extension : CM (complete main)
Format settings, Endianness : Big
Codec ID : A_AC3
Duration : 1h 59mn
Bit rate mode : Constant
Bit rate : 448 Kbps
Channel(s) : 6 channels
Channel positions : Front: L C R, Side: L R, LFE
Sampling rate : 48.0 KHz
Bit depth : 16 bits
Compression mode : Lossy
Stream size : 382 MiB (9%)
Title : DVO
Language : Russian
Default : No
Forced : No
Audio #2
ID : 3
Format : AC-3
Format/Info : Audio Coding 3
Mode extension : CM (complete main)
Format settings, Endianness : Big
Codec ID : A_AC3
Duration : 1h 59mn
Bit rate mode : Constant
Bit rate : 192 Kbps
Channel(s) : 2 channels
Channel positions : Front: L R
Sampling rate : 48.0 KHz
Bit depth : 16 bits
Compression mode : Lossy
Stream size : 164 MiB (4%)
Title : AVO (Юрий Живов)
Language : Russian
Default : No
Forced : No
Audio #3
ID : 4
Format : AC-3
Format/Info : Audio Coding 3
Mode extension : CM (complete main)
Format settings, Endianness : Big
Codec ID : A_AC3
Duration : 1h 59mn
Bit rate mode : Constant
Bit rate : 384 Kbps
Channel(s) : 6 channels
Channel positions : Front: L C R, Side: L R, LFE
Sampling rate : 48.0 KHz
Bit depth : 16 bits
Compression mode : Lossy
Stream size : 327 MiB (8%)
Language : English
Default : No
Forced : No
Text #1
ID : 5
Format : UTF-8
Codec ID : S_TEXT/UTF8
Codec ID/Info : UTF-8 Plain Text
Language : Russian
Default : No
Forced : No
Text #2
ID : 6
Format : UTF-8
Codec ID : S_TEXT/UTF8
Codec ID/Info : UTF-8 Plain Text
Language : English
Default : No
Forced : No
Menu
00:00:00.000 : en:Start
00:00:43.000 : en:Face in the crowd
00:02:33.000 : en:Combat zone
00:07:39.000 : en:Fox Hole
00:12:26.000 : en:Village etiquette
00:14:30.000 : en:Jivin' with Brownie
00:16:45.000 : en:30 days too soon
00:20:38.000 : en:Basecamp Wolf
00:23:28.000 : en:Slugs, lowlifes & roaches
00:24:51.000 : en:Passes canceled
00:26:36.000 : en:"Recon Briefing"
00:29:11.000 : en:Portable R&R
00:33:53.000 : en:Genghis Khan
00:39:16.000 : en:Whole wrong outlook
00:44:57.000 : en:"I'm your friend."
00:46:40.000 : en:"I ain't rapin' nobody."
00:57:15.000 : en:View from the ridge
01:03:53.000 : en:Aborted escape
01:06:47.000 : en:"We gotta waste her."
01:10:28.000 : en:Firefight
01:13:07.000 : en:"Shoot her!'
01:19:21.000 : en:Lt. Reilly
01:22:21.000 : en:Private Cherry
01:26:40.000 : en:Captain Hill
01:30:22.000 : en:Clark blows it
01:35:09.000 : en:Chaplain's confessional
01:38:54.000 : en:Court-martial
01:42:45.000 : en:The verdicts

Скриншоты





Создавать темы 29-Дек-2014 10:15

[Профиль]  [ЛС] 

vlacom

Стаж: 4 года 2 месяца

Сообщений: 44

Симпатии: 21

Спасибо - Очень хороший фильм

Создавать темы 31-Янв-2015 19:48

[Профиль]  [ЛС] 
Показать сообщения:    
Ответить на тему

Текущее время: 23-Сен 07:15

Часовой пояс: UTC + 5



Вы не можете начинать темы
Вы не можете отвечать на сообщения
Вы не можете редактировать свои сообщения
Вы не можете удалять свои сообщения
Вы не можете голосовать в опросах
Вы не можете прикреплять файлы к сообщениям
Вы не можете скачивать файлы