(Hard Rock) VA - Just Like... Rock Legends Playing The Songs Of Led Zeppelin - 2CD - 2008, FLAC (image + .cue), lossless

Ответить на тему
 

Massageth ®

Стаж: 6 лет 10 месяцев

Сообщений: 116

Симпатии: 15

-VA - Just Like... Rock Legends Playing The Songs Of Led Zeppelin - 2CD-
-Страна: Various | Жанр: Hard Rock | Год выпуска: 2008 | Лейбл: DELTA MUSIC & Entertainment GmbH & Co.KG | Каталог: 11 068/069-Формат: FLAC (image + .cue) | Битрейт аудио: lossless-Продолжительность: 01:26:54-Этот релиз не очередной сборник хитов LZ, а трибьют хитов Led Zeppelin, на мой взгляд очень удачный. Тем более имена исполнителей говорят сами за себя: Joe Lynn Turner (Rainbow, Deep Purple), Bob Kulick & Bruce Kulick (Kiss), Keith Emerson (ELP), Brian Robertson (Thin Lizzy, Whitesnake), Rick Wakeman (Yes), John Wetton (Uriah Heep, Asia), ...-

Треклист

CD1


Продолжительность: 00:44:27
01. Pat Travers - Whole Lotta Love - (04:42)
02. Steve Lukather & Michael White & Billy Sherwood & Vinnie Colaiuta - Rock And Roll - (03:41)
03. Joe Lynn Turner & Jeff'Skunk'Baxter & Tony Franklin & Doane Perry & Bob Kulick - Baby, I Gonna Leave You - (06:28)
04. Manny Charlton, Michael White, Billy Sherwood, Alan White - Immigrant Song - (02:24)
05. Steve Morse, Michael White, Billy Sherwood, Alan White - Heartbreaker - (04:25)
06. Jack Russell & Bob Kulick & Bruce Kulick & Tony Franklin & Doane Perry - Dazed And Confuzed - (06:29)
07. Pat Travers - Houses Of The Holy - (04:29)
08. Walter Trout, Tony Kaye, Michael White, Billy Sherwood, Alan White - All My Love - (05:34)
09. Keith Emerson & Michael White & Billy Sherwood & Alan White - Black Dog - (06:11)

Отчёт Exact Audio Copy


Exact Audio Copy V1.0 beta 1 from 15. November 2010
EAC extraction logfile from 26. July 2013, 19:18
V.A. / Just Like...Rock Legends Playing The Songs Of Led Zeppelin CD1
Used drive : HL-DT-STDVDRAM GH20NS10 Adapter: 0 ID: 1
Read mode : Secure
Utilize accurate stream : Yes
Defeat audio cache : Yes
Make use of C2 pointers : No
Read offset correction : 667
Overread into Lead-In and Lead-Out : No
Fill up missing offset samples with silence : Yes
Delete leading and trailing silent blocks : No
Null samples used in CRC calculations : Yes
Used interface : Installed external ASPI interface
Used output format : User Defined Encoder
Selected bitrate : 768 kBit/s
Quality : High
Add ID3 tag : No
Command line compressor : C:\Program Files\Exact Audio Copy\FLAC\FLAC.EXE
Additional command line options : -6 -V -T "ARTIST=%a" -T "TITLE=%t" -T "ALBUM=%g" -T "DATE=%y" -T "TRACKNUMBER=%n" -T "GENRE=%m" -T "COMMENT=%e" %j--picture="%i"%j %s -o %d
TOC of the extracted CD
Track | Start | Length | Start sector | End sector
---------------------------------------------------------
1 | 0:00.00 | 4:44.19 | 0 | 21318
2 | 4:44.19 | 3:43.13 | 21319 | 38056
3 | 8:27.32 | 6:30.16 | 38057 | 67322
4 | 14:57.48 | 2:26.51 | 67323 | 78323
5 | 17:24.24 | 4:27.07 | 78324 | 98355
6 | 21:51.31 | 6:31.04 | 98356 | 127684
7 | 28:22.35 | 4:30.62 | 127685 | 147996
8 | 32:53.22 | 5:36.56 | 147997 | 173252
9 | 38:30.03 | 6:11.59 | 173253 | 201136
Range status and errors
Selected range
Filename H:\ 123\V.A. - Just Like...Rock Legends Playing The Songs Of Led Zeppelin CD1.wav
Peak level 98.8 %
Extraction speed 1.0 X
Range quality 100.0 %
Copy CRC 4B9D06A6
Copy OK
No errors occurred
AccurateRip summary
Track 1 not present in database
Track 2 not present in database
Track 3 not present in database
Track 4 not present in database
Track 5 not present in database
Track 6 not present in database
Track 7 not present in database
Track 8 not present in database
Track 9 not present in database
None of the tracks are present in the AccurateRip database
End of status report

CD2


Продолжительность: 00:42:27
01. Dweezil Zappa, Michael White, Billy Sherwood, Vinnie Colaiuta - Stairway To Heaven - (08:16)
02. Eric Bloom & Brian Robertson & Tony Franklin & Doane Perry - Good Times, Bad Times - (03:10)
03. Rick Derringer & Billy Sherwood & Alan White - Ramble On - (04:11)
04. Artimus Pyle & Jimmy Hall & Abe White & Kurt Menk & Ryan Bullington & Jim'Tur...- You Shock Me - (05:52)
05. Artimus Pyle, Jimmy Hall, Larry Goad, Abe White, Kurt Menk, Thane Shearon - When The Levee Breaks - (06:43)
06. John Wetton & Geoff Downes & Alan White & Billy Sherwood - Dancin' Days - (03:42)
07. Albert Lee & Tony Kaye & Michael White & Billy Sherwood & Vinnie Colaiuta - D'yer Mak'er - (04:24)
08. Rick Wakeman & Michael White & Billy Sherwood & Vinnie Colaiuta - Fool In The Rain - (06:05)

Отчёт Exact Audio Copy


Exact Audio Copy V1.0 beta 1 from 15. November 2010
EAC extraction logfile from 26. July 2013, 19:52
V.A. / Just Like...Rock Legends Playing The Songs Of Led Zeppelin CD2
Used drive : HL-DT-STDVDRAM GH20NS10 Adapter: 0 ID: 1
Read mode : Secure
Utilize accurate stream : Yes
Defeat audio cache : Yes
Make use of C2 pointers : No
Read offset correction : 667
Overread into Lead-In and Lead-Out : No
Fill up missing offset samples with silence : Yes
Delete leading and trailing silent blocks : No
Null samples used in CRC calculations : Yes
Used interface : Installed external ASPI interface
Used output format : User Defined Encoder
Selected bitrate : 768 kBit/s
Quality : High
Add ID3 tag : No
Command line compressor : C:\Program Files\Exact Audio Copy\FLAC\FLAC.EXE
Additional command line options : -6 -V -T "ARTIST=%a" -T "TITLE=%t" -T "ALBUM=%g" -T "DATE=%y" -T "TRACKNUMBER=%n" -T "GENRE=%m" -T "COMMENT=%e" %j--picture="%i"%j %s -o %d
TOC of the extracted CD
Track | Start | Length | Start sector | End sector
---------------------------------------------------------
1 | 0:00.00 | 8:18.69 | 0 | 37418
2 | 8:18.69 | 3:12.41 | 37419 | 51859
3 | 11:31.35 | 4:12.68 | 51860 | 70827
4 | 15:44.28 | 5:54.73 | 70828 | 97450
5 | 21:39.26 | 6:45.58 | 97451 | 127883
6 | 28:25.09 | 3:45.04 | 127884 | 144762
7 | 32:10.13 | 4:26.07 | 144763 | 164719
8 | 36:36.20 | 6:05.15 | 164720 | 192109
Range status and errors
Selected range
Filename H:\ 123\V.A. - Just Like...Rock Legends Playing The Songs Of Led Zeppelin CD2.wav
Peak level 98.8 %
Extraction speed 1.0 X
Range quality 100.0 %
Copy CRC A9E9AA7D
Copy OK
No errors occurred
AccurateRip summary
Track 1 not present in database
Track 2 not present in database
Track 3 not present in database
Track 4 not present in database
Track 5 not present in database
Track 6 not present in database
Track 7 not present in database
Track 8 not present in database
None of the tracks are present in the AccurateRip database
End of status report

Создавать темы 30-Дек-2014 10:46

[Профиль]  [ЛС] 
Показать сообщения:    
Ответить на тему

Текущее время: 23-Сен 21:32

Часовой пояс: UTC + 5



Вы не можете начинать темы
Вы не можете отвечать на сообщения
Вы не можете редактировать свои сообщения
Вы не можете удалять свои сообщения
Вы не можете голосовать в опросах
Вы не можете прикреплять файлы к сообщениям
Вы не можете скачивать файлы