(Hard Rock/Blues Rock) Bad Company - Live At Wembley - 2010, FLAC (tracks), lossless

Ответить на тему
 

Massageth ®

Стаж: 6 лет 9 месяцев

Сообщений: 116

Симпатии: 15

Bad Company-Live At Wembley - 2010- -Страна: UK | Жанр: Hard Rock/Blues Rock | Год выпуска: 2010-Лейбл: Eagle Rock Entertainment Ltd. USA | Engineer: Mike Fraser | Номер по каталогу: ER202062 | Формат: FLAC (tracks) | Битрейт аудио: lossless-Продолжительность: 01:17:13-
Концерт легендарной группы Bad Company на престижной Арене Уэмбли в Лондоне в 2010 году.-

Треклист


01. Can't Get Enough - (04:17)
02. Honey Child - (03:38)
03. Run With The Pack - (04:20)
04. Young Blood - (03:48)
05. Seagull - (04:37)
06. Gone, Gone, Gone - (04:32)
07. Electric Land - (05:05)
08. Simple Man - (05:29)
09. Feel Like Makin' Love - (06:36)
10. Shooting Star - (07:24)
11. Rock And Roll Fantasy - (04:35)
12. Movin' On - (04:04)
13. Ready For Love - (07:59)
14. Bad Company - (05:51)
15. Deal With The Preacher - (04:49)

Состав группы


- Пол Роджерс - Вокал;
- Мик Ральфс - гитара;
- Саймон Кирк - ударные;
- (басист Боз Баррелл умер в 2006).
- Их дополняют гитарист Ховард Лиз и басист Линн Соренсен.

Отчёт Exact Audio Copy


Exact Audio Copy V0.99 prebeta 5 from 4. May 2009
EAC extraction logfile from 11. July 2011, 16:04
Bad Company / Live At Wembley
Used drive : TSSTcorpCDDVDW SH-S223B Adapter: 2 ID: 1
Read mode : Secure
Utilize accurate stream : Yes
Defeat audio cache : Yes
Make use of C2 pointers : No
Read offset correction : 6
Overread into Lead-In and Lead-Out : No
Fill up missing offset samples with silence : Yes
Delete leading and trailing silent blocks : No
Null samples used in CRC calculations : Yes
Used interface : Native Win32 interface for Win NT & 2000
Gap handling : Appended to previous track
Used output format : User Defined Encoder
Selected bitrate : 768 kBit/s
Quality : High
Add ID3 tag : No
Command line compressor : C:\Program Files\Exact Audio Copy\FLAC\FLAC.EXE
Additional command line options : -8 -V -T "ARTIST=%a" -T "TITLE=%t" -T "ALBUM=%g" -T "DATE=%y" -T "TRACKNUMBER=%n" -T "GENRE=%m" -T "COMMENT=%e" %s -o %d
TOC of the extracted CD
Track | Start | Length | Start sector | End sector
---------------------------------------------------------
1 | 0:00.00 | 4:17.44 | 0 | 19318
2 | 4:17.44 | 3:38.74 | 19319 | 35742
3 | 7:56.43 | 4:20.60 | 35743 | 55302
4 | 12:17.28 | 3:48.65 | 55303 | 72467
5 | 16:06.18 | 4:37.48 | 72468 | 93290
6 | 20:43.66 | 4:32.45 | 93291 | 113735
7 | 25:16.36 | 5:05.06 | 113736 | 136616
8 | 30:21.42 | 5:29.40 | 136617 | 161331
9 | 35:51.07 | 6:36.34 | 161332 | 191065
10 | 42:27.41 | 7:24.04 | 191066 | 224369
11 | 49:51.45 | 4:35.74 | 224370 | 245068
12 | 54:27.44 | 4:04.39 | 245069 | 263407
13 | 58:32.08 | 7:59.44 | 263408 | 299376
14 | 66:31.52 | 5:51.62 | 299377 | 325763
15 | 72:23.39 | 4:49.45 | 325764 | 347483
Track 1
Filename D:\Bad Company - 2011 - Live At Wembley\01 - Can't Get Enough.wav
Pre-gap length 0:00:02.00
Peak level 100.0 %
Track quality 100.0 %
Test CRC 41EAAA1F
Copy CRC 41EAAA1F
Track not present in AccurateRip database
Copy OK
Track 2
Filename D:\Bad Company - 2011 - Live At Wembley\02 - Honey Child.wav
Peak level 100.0 %
Track quality 100.0 %
Test CRC FA143589
Copy CRC FA143589
Track not present in AccurateRip database
Copy OK
Track 3
Filename D:\Bad Company - 2011 - Live At Wembley\03 - Run With The Pack.wav
Peak level 98.9 %
Track quality 100.0 %
Test CRC 1C05307F
Copy CRC 1C05307F
Track not present in AccurateRip database
Copy OK
Track 4
Filename D:\Bad Company - 2011 - Live At Wembley\04 - Young Blood.wav
Peak level 100.0 %
Track quality 100.0 %
Test CRC FB1D5518
Copy CRC FB1D5518
Track not present in AccurateRip database
Copy OK
Track 5
Filename D:\Bad Company - 2011 - Live At Wembley\05 - Seagull.wav
Peak level 95.3 %
Track quality 100.0 %
Test CRC CF359FE1
Copy CRC CF359FE1
Track not present in AccurateRip database
Copy OK
Track 6
Filename D:\Bad Company - 2011 - Live At Wembley\06 - Gone, Gone, Gone.wav
Peak level 100.0 %
Track quality 99.9 %
Test CRC 4C290D9C
Copy CRC 4C290D9C
Track not present in AccurateRip database
Copy OK
Track 7
Filename D:\Bad Company - 2011 - Live At Wembley\07 - Electric Land.wav
Peak level 99.0 %
Track quality 99.9 %
Test CRC D9D324EF
Copy CRC D9D324EF
Track not present in AccurateRip database
Copy OK
Track 8
Filename D:\Bad Company - 2011 - Live At Wembley\08 - Simple Man.wav
Peak level 97.2 %
Track quality 100.0 %
Test CRC E53A5168
Copy CRC E53A5168
Track not present in AccurateRip database
Copy OK
Track 9
Filename D:\Bad Company - 2011 - Live At Wembley\09 - Feel Like Makin' Love.wav
Peak level 100.0 %
Track quality 100.0 %
Test CRC 44808534
Copy CRC 44808534
Track not present in AccurateRip database
Copy OK
Track 10
Filename D:\Bad Company - 2011 - Live At Wembley\10 - Shooting Star.wav
Peak level 98.4 %
Track quality 100.0 %
Test CRC 44A9E7D3
Copy CRC 44A9E7D3
Track not present in AccurateRip database
Copy OK
Track 11
Filename D:\Bad Company - 2011 - Live At Wembley\11 - Rock And Roll Fantasy.wav
Peak level 98.7 %
Track quality 100.0 %
Test CRC 2562C663
Copy CRC 2562C663
Track not present in AccurateRip database
Copy OK
Track 12
Filename D:\Bad Company - 2011 - Live At Wembley\12 - Movin' On.wav
Peak level 98.6 %
Track quality 100.0 %
Test CRC 63C2AF82
Copy CRC 63C2AF82
Track not present in AccurateRip database
Copy OK
Track 13
Filename D:\Bad Company - 2011 - Live At Wembley\13 - Ready For Love.wav
Peak level 98.7 %
Track quality 100.0 %
Test CRC 89409520
Copy CRC 89409520
Track not present in AccurateRip database
Copy OK
Track 14
Filename D:\Bad Company - 2011 - Live At Wembley\14 - Bad Company.wav
Peak level 99.3 %
Track quality 100.0 %
Test CRC B090FEAE
Copy CRC B090FEAE
Track not present in AccurateRip database
Copy OK
Track 15
Filename D:\Bad Company - 2011 - Live At Wembley\15 - Deal With The Preacher.wav
Peak level 100.0 %
Track quality 100.0 %
Test CRC 27F58E7E
Copy CRC 27F58E7E
Track not present in AccurateRip database
Copy OK
None of the tracks are present in the AccurateRip database
No errors occurred
End of status report

Отчёт Folder.auCDtect


-----------------------
DON'T MODIFY THIS FILE
-----------------------
PERFORMER: auCDtect Task Manager, ver. 1.5.1RC6 build 1.5.1.7
Copyright (c) 2008-2010 y-soft. All rights reserved
http://y-soft.org
ANALYZER: auCDtect: CD records authenticity detector, version 0.8.2
Copyright (c) 2004 Oleg Berngardt. All rights reserved.
Copyright (c) 2004 Alexander Djourik. All rights reserved.
FILE: 15 - Deal With The Preacher.flac
Size: 38785893 Hash: C95495BCD6547A7B547595599158FE7B Accuracy: -m0
Conclusion: CDDA 100%
Signature: 5C21DE5CD1B4D908660D38E9B1E10CBDA4034242
FILE: 14 - Bad Company.flac
Size: 45331894 Hash: A6085AB862F28F1F0BF6A04DCBDADA68 Accuracy: -m0
Conclusion: CDDA 100%
Signature: CAE9AFF1A09A701231BAE3A95A4B7D7D6D75116C
FILE: 13 - Ready For Love.flac
Size: 56182341 Hash: 051512E70120B418883DCBC1348C122E Accuracy: -m0
Conclusion: CDDA 100%
Signature: FC9CDA3DCA7C1BB0325CCC5E0635859242C1757D
FILE: 12 - Movin' On.flac
Size: 32702903 Hash: 93094E36CF73D1791FCE8ED58F81BD19 Accuracy: -m0
Conclusion: CDDA 100%
Signature: AD28D170D5FBD42E9B34D5CEFB2770E23855A441
FILE: 11 - Rock And Roll Fantasy.flac
Size: 37247686 Hash: 04108E1ED9E65531F9B5537ADF7F08B0 Accuracy: -m0
Conclusion: CDDA 100%
Signature: 0A59B1310EE77A464857E71811666BDD381F56BF
FILE: 10 - Shooting Star.flac
Size: 55298514 Hash: 3DB0003EBFE56B36114D2CEC1414AEB6 Accuracy: -m0
Conclusion: CDDA 100%
Signature: E66939912ABE4B107E5218D4D9BECF2AA8508DF4
FILE: 09 - Feel Like Makin' Love.flac
Size: 49340877 Hash: A59518CE93F7BE6CF47F27A2BD79EAA7 Accuracy: -m0
Conclusion: CDDA 99%
Signature: D15AD1369C0B9902A0311E708136872B5BD7B639
FILE: 08 - Simple Man.flac
Size: 39389169 Hash: 964362946B8A064EF3D58694926DA489 Accuracy: -m0
Conclusion: CDDA 100%
Signature: 793A9DAE98B2B1C868ECB492586D3E609F016ECA
FILE: 07 - Electric Land.flac
Size: 39553762 Hash: 2BE25A0DA495D092F62879188F8BC229 Accuracy: -m0
Conclusion: CDDA 100%
Signature: 53E0074A6F2DE0CA77385C894509D28355E3D1C4
FILE: 06 - Gone, Gone, Gone.flac
Size: 34532804 Hash: 9881C35F5A7C48F68803D29A71321B0E Accuracy: -m0
Conclusion: CDDA 99%
Signature: B3EEFC5DFA184692C0D1C104526F21D890188137
FILE: 05 - Seagull.flac
Size: 33883755 Hash: 9F42D7B9AE74F55C1FDE191A5917B155 Accuracy: -m0
Conclusion: CDDA 100%
Signature: E352FC2A91D5588CB3305BFDCCC059F191539C1B
FILE: 04 - Young Blood.flac
Size: 27279638 Hash: 949E172523D087BE9B7D9FA78B897428 Accuracy: -m0
Conclusion: CDDA 100%
Signature: 66B327E6B9E933F1BFFE8929BAC6D688EF70321C
FILE: 03 - Run With The Pack.flac
Size: 32215507 Hash: 81AFCB123690A3B15EF8E53090F228A9 Accuracy: -m0
Conclusion: CDDA 99%
Signature: 972F0E33925D923F7B2E5D8A950AF46E9AFE08E2
FILE: 02 - Honey Child.flac
Size: 29149416 Hash: 012CEDE7A186F274543E9FE6DCB4E599 Accuracy: -m0
Conclusion: CDDA 100%
Signature: 5F43EA1FEAC8DF33B01A2A189AA035E2082F7B82
FILE: 01 - Can't Get Enough.flac
Size: 32449749 Hash: B8F7C41B1ADC3758A262A96DF39AD0EE Accuracy: -m0
Conclusion: CDDA 100%
Signature: CC6C484F88DA98A845C402C958A708DE2E8338A8

Сканы

Создавать темы 30-Дек-2014 20:29

[Профиль]  [ЛС] 
Показать сообщения:    
Ответить на тему

Текущее время: 22-Авг 13:57

Часовой пояс: UTC + 5



Вы не можете начинать темы
Вы не можете отвечать на сообщения
Вы не можете редактировать свои сообщения
Вы не можете удалять свои сообщения
Вы не можете голосовать в опросах
Вы не можете прикреплять файлы к сообщениям
Вы не можете скачивать файлы