Ярость / Fury (Дэвид Эйр) [2014 г., боевик, драма, военный, WEB-DLRip] [Чистый звук]

Ответить на тему
 

Старый Дядька ®

Стаж: 5 лет

Сообщений: 566

Симпатии: 400

Ярость / Fury--«War never ends quietly»- Год выпуска: 2014
Страна: Великобритания, США, Китай
Жанр: боевик, драма, военный
Продолжительность: 2:14:38
Перевод: Дублированный [Чистый звук] Официальный-Режиссер: Дэвид Эйр-В ролях: Брэд Питт, Логан Лерман, Шайа ЛаБаф, Майкл Пенья, Джон Бернтал, Джейсон Айзекс, Джим Пэррак, Брэд Уильям Хенке, Кевин Вэнс, Завьер Сэмюэл-Описание: Стоит апрель 1945 года, и победа над немцами уже близка: союзники уверенно продвигаются вглубь вражеской территории, и оказываемое им сопротивление становится слабее день ото дня. Это, однако, совсем не значит, что на пути к победе союзные войска не потеряют еще множество людей, и многие солдаты сознают, что смерть ждет на расстоянии вытянутой руки. Среди закаленных в бою пессимистов, каждый день ведущих ожесточенные бои во имя победы, экипаж танка, на чьем дуле намалевано слово «Ярость».
Командир экипажа, известный как Уордэдди, воевавший с нацистскими войсками сначала в Африке, а потом в Европе, преследует одну цель — выжить в войне и сохранить жизнь своим людям. Этот относительно амбициозный план оказывается под угрозой, когда к его экипажу присоединяется зеленый новобранец Норман Эллисон, никогда раньше не воевавший и еще не успевший привыкнуть к тому, что должен быстро и без колебаний обрывать человеческие жизни. Надежда выжить становится совсем призрачной, когда экипажу «Ярости» приходится принять участие в самоубийственной миссии.-Премьера (мир): 15 октября 2014
Премьера (РФ): 30 октября 2014
Релиз на Blu-Ray, DVD: 12 февраля 2015
Возраст: зрителям, достигшим 16 лет-Рейтинг:
 -Качество: WEB-DLRip
Формат: AVI
Видео кодек: XviD
Аудио кодек: AC3-Видео: 1060 Кбит/сек, 720х304 пикселей (2,35:1), 23,976 кадра/сек
Аудио: 384 Кбит/сек, 2 канала, 48,0 КГц

Mediainfo

Общее
Полное имя : F:\Фильмы\Ярость.2014.Ч.WEB-DLRip.(1.37).avi
Формат : AVI
Формат/Информация : Audio Video Interleave
Размер файла : 1,37 Гбайт
Продолжительность : 2 ч. 14 м.
Общий поток : 1453 Кбит/сек
Программа кодирования : VirtualDubMod 1.5.10.2 (build 2540/release)
Библиотека кодирования : VirtualDubMod build 2540/release
Видео
Идентификатор : 0
Формат : MPEG-4 Visual
Профиль формата : Advanced [email protected]
Параметр BVOP формата : 2
Параметр QPel формата : Нет
Параметр GMC формата : Без точки перехода
Параметр матрицы формата : Default (MPEG)
Идентификатор кодека : XVID
Идентификатор кодека/Подсказка : XviD
Продолжительность : 2 ч. 14 м.
Битрейт : 1060 Кбит/сек
Ширина : 720 пикселей
Высота : 304 пикселя
Соотношение сторон : 2,35:1
Частота кадров : 23,976 кадра/сек
Цветовое пространство : YUV
Субдискретизация насыщенности : 4:2:0
Битовая глубина : 8 бит
Тип развёртки : Прогрессивная
Метод сжатия : С потерями
Бит/(Пиксели*Кадры) : 0.202
Размер потока : 1021 Мбайт (73%)
Библиотека кодирования : XviD 1.2.1 (UTC 2008-12-04)
Аудио
Идентификатор : 1
Формат : AC-3
Формат/Информация : Audio Coding 3
Расширение режима : CM (complete main)
Параметр Endianness формата : Big
Идентификатор кодека : 2000
Продолжительность : 2 ч. 14 м.
Вид битрейта : Постоянный
Битрейт : 384 Кбит/сек
Каналы : 2 канала
Расположение каналов : Front: L R
Частота : 48,0 КГц
Битовая глубина : 16 бит
Метод сжатия : С потерями
Размер потока : 370 Мбайт (26%)
Выравнивание : Разделение по промежуткам
Продолжительность промежутка : 42 мс. (1,00 видеокадр)
Время предзагрузки промежутка : 500 мс.

Скриншоты





Создавать темы 30-Дек-2014 23:41

[Профиль]  [ЛС] 

farid0888

Стаж: 5 лет 4 месяца

Сообщений: 232

Симпатии: 49

valeri-mvv-101, Помогу с раздачей)

Создавать темы 31-Дек-2014 02:18

[Профиль]  [ЛС] 

Shmidt

Стаж: 4 года 7 месяцев

Сообщений: 20

Симпатии: 8

Что-то так плохо качает хотя пиров валом

Создавать темы 04-Янв-2015 17:02

[Профиль]  [ЛС] 

Shmidt

Стаж: 4 года 7 месяцев

Сообщений: 20

Симпатии: 8

Помогите пожалуйста я начал качать этот релиз и мне осталось 3% скачать что делать?

Создавать темы 04-Янв-2015 17:22

[Профиль]  [ЛС] 

1banan1

Стаж: 4 года 5 месяцев

Сообщений: 1

Shmidt, 3%, у меня 20 осталось, ставь на скачку, может найдутся те самые 3%

Создавать темы 04-Янв-2015 19:37

[Профиль]  [ЛС] 

ruzimatov

Стаж: 6 лет 5 месяцев

Сообщений: 4

отличный фильм, массу эмоций...

Создавать темы 05-Янв-2015 00:06

[Профиль]  [ЛС] 
Показать сообщения:    
Ответить на тему

Текущее время: 24-Сен 17:22

Часовой пояс: UTC + 5



Вы не можете начинать темы
Вы не можете отвечать на сообщения
Вы не можете редактировать свои сообщения
Вы не можете удалять свои сообщения
Вы не можете голосовать в опросах
Вы не можете прикреплять файлы к сообщениям
Вы не можете скачивать файлы