Стрингер / Nightcrawler (Дэн Гилрой) [2013 г., триллер, драма, криминал, WEBRip]

Ответить на тему
 

Старый Дядька ®

Стаж: 4 года 11 месяцев

Сообщений: 566

Симпатии: 400

Стрингер / Nightcrawler--«Ночью город сияет ярче»- Год выпуска: 2013
Страна: США
Жанр: триллер, драма, криминал
Продолжительность: 1:52:34
Перевод: Любительский (двухголосый) [Студия Пиратского Дубляжа]
Примечание: Присутствуют вшитые арабские субтитры.-Режиссер: Дэн Гилрой-В ролях: Джейк Джилленхол, Рене Руссо, Риз Ахмед, Билл Пэкстон, Майкл Пападжон, Марко Родригес, Джеймс Хуанг, Кент Шокнек, Пэт Харви, Шэрон Тэй-Описание: Криминальная драма, события которой разворачиваются в современном Лос-Анджелесе, расскажет историю молодого парня, открывшего для себя подпольный мир независимой криминальной журналистики...-Премьера (мир): 5 сентября 2014
Возраст: зрителям, достигшим 16 лет-Рейтинг:
 -Качество: WEBRip
Формат: AVI
Видео кодек: XviD
Аудио кодек: AC3-Видео: 1720 Кбит/сек, 720х304 пикселей (2,35:1), 25,000 кадров/сек
Аудио: 128 Кбит/сек, 2 канала, 48,0 КГц

Mediainfo

Общее
Полное имя : F:\Фильмы\Стрингер.2014.L2.WebRip.(1.46).avi
Формат : AVI
Формат/Информация : Audio Video Interleave
Размер файла : 1,46 Гбайт
Продолжительность : 1 ч. 52 м.
Общий поток : 1858 Кбит/сек
Программа кодирования : VirtualDubMod 1.5.10.3 | www.virtualdub-fr.org || (build 2550/release)
Библиотека кодирования : VirtualDubMod build 2550/release
Видео
Идентификатор : 0
Формат : MPEG-4 Visual
Профиль формата : Advanced [email protected]
Параметр BVOP формата : 2
Параметр QPel формата : Нет
Параметр GMC формата : Без точки перехода
Параметр матрицы формата : Default (MPEG)
Идентификатор кодека : XVID
Идентификатор кодека/Подсказка : XviD
Продолжительность : 1 ч. 52 м.
Битрейт : 1720 Кбит/сек
Ширина : 720 пикселей
Высота : 304 пикселя
Соотношение сторон : 2,35:1
Частота кадров : 25,000 кадров/сек
Цветовое пространство : YUV
Субдискретизация насыщенности : 4:2:0
Битовая глубина : 8 бит
Тип развёртки : Прогрессивная
Метод сжатия : С потерями
Бит/(Пиксели*Кадры) : 0.314
Размер потока : 1,35 Гбайт (93%)
Библиотека кодирования : XviD 1.2.1 (UTC 2008-12-04)
Аудио
Идентификатор : 1
Формат : AC-3
Формат/Информация : Audio Coding 3
Расширение режима : CM (complete main)
Параметр Endianness формата : Big
Идентификатор кодека : 2000
Продолжительность : 1 ч. 52 м.
Вид битрейта : Постоянный
Битрейт : 128 Кбит/сек
Каналы : 2 канала
Расположение каналов : Front: L R
Частота : 48,0 КГц
Битовая глубина : 16 бит
Метод сжатия : С потерями
Размер потока : 103 Мбайт (7%)
Выравнивание : Разделение по промежуткам
Продолжительность промежутка : 40 мс. (1,00 видеокадр)
Время предзагрузки промежутка : 500 мс.

Скриншоты





Создавать темы 31-Дек-2014 00:34

[Профиль]  [ЛС] 

pirat

Стаж: 5 лет 3 месяца

Сообщений: 216

Симпатии: 63

Я вероятно не имею вкуса, ибо сие произведение меня к сожалению не впечатлило, а даже наоборот... ожидал большего.
тем не менее спасибо автор.

Создавать темы 05-Янв-2015 16:01

[Профиль]  [ЛС] 
Показать сообщения:    
Ответить на тему

Текущее время: 18-Авг 10:06

Часовой пояс: UTC + 5



Вы не можете начинать темы
Вы не можете отвечать на сообщения
Вы не можете редактировать свои сообщения
Вы не можете удалять свои сообщения
Вы не можете голосовать в опросах
Вы не можете прикреплять файлы к сообщениям
Вы не можете скачивать файлы