Сюзанн / Suzanne (Кэйтель Куиливье) [2013 г., драма, HDRip]

Ответить на тему
 

Старый Дядька ®

Стаж: 5 лет 3 месяца

Сообщений: 566

Симпатии: 400

Сюзанн / Suzanne-- Год выпуска: 2013
Страна: Франция
Жанр: драма
Продолжительность: 1:33:52
Перевод: Любительский (одноголосый) Lord32x-Режиссер: Кэйтель Куиливье-В ролях: Сара Форестье, Франсуа Дамиенс, Адель Энель, Поль Ами, Лола Дуэньяс, Корина Масьеро, Анн Ле Ни, Карим Леклу, Аполлония Луизетти, Фани Занини-Описание: Став матерью в подростковом возрасте, Сюзанна живет вместе с отцом дальнобойщиком и сестрой. Жизнь Сюзанны резко меняется после того, как она влюбляется в Жюльена, жулика, сбивающего её с пути. Затем следуют побег, тюрьма и сумасшедшая любовь, ради которой она отказывается от всего…-Премьера (мир): 16 мая 2013-Рейтинг:
 -Качество: HDRip
Формат: AVI
Видео кодек: XviD
Аудио кодек: AC3-Видео: 1638 Кбит/сек, 720х384 пикселей (1,85:1), 24,000 кадра/сек
Аудио: 448 Кбит/сек, 6 каналов, 48,0 КГц

Mediainfo

Общее
Полное имя : F:\Фильмы\Сюзанн.2013.L1.HDRip.(1,37).avi
Формат : AVI
Формат/Информация : Audio Video Interleave
Размер файла : 1,37 Гбайт
Продолжительность : 1 ч. 33 м.
Общий поток : 2096 Кбит/сек
Программа кодирования : VirtualDubMod 1.5.10.3 | www.virtualdub-fr.org || (build 2550/release)
Библиотека кодирования : VirtualDubMod build 2550/release
Видео
Идентификатор : 0
Формат : MPEG-4 Visual
Профиль формата : Advanced [email protected]
Параметр BVOP формата : 2
Параметр QPel формата : Нет
Параметр GMC формата : Без точки перехода
Параметр матрицы формата : Default (H.263)
Идентификатор кодека : XVID
Идентификатор кодека/Подсказка : XviD
Продолжительность : 1 ч. 33 м.
Битрейт : 1638 Кбит/сек
Ширина : 720 пикселей
Высота : 384 пикселя
Соотношение сторон : 1,85:1
Частота кадров : 24,000 кадра/сек
Цветовое пространство : YUV
Субдискретизация насыщенности : 4:2:0
Битовая глубина : 8 бит
Тип развёртки : Прогрессивная
Метод сжатия : С потерями
Бит/(Пиксели*Кадры) : 0.247
Размер потока : 1,07 Гбайт (78%)
Библиотека кодирования : XviD 73
Аудио
Идентификатор : 1
Формат : AC-3
Формат/Информация : Audio Coding 3
Расширение режима : CM (complete main)
Параметр Endianness формата : Big
Идентификатор кодека : 2000
Продолжительность : 1 ч. 33 м.
Вид битрейта : Постоянный
Битрейт : 448 Кбит/сек
Каналы : 6 каналов
Расположение каналов : Front: L C R, Side: L R, LFE
Частота : 48,0 КГц
Битовая глубина : 16 бит
Метод сжатия : С потерями
Размер потока : 301 Мбайт (21%)
Выравнивание : Разделение по промежуткам
Продолжительность промежутка : 42 мс. (1,00 видеокадр)
Время предзагрузки промежутка : 500 мс.

Скриншоты





Создавать темы 31-Дек-2014 01:57

[Профиль]  [ЛС] 
Показать сообщения:    
Ответить на тему

Текущее время: 18-Дек 19:38

Часовой пояс: UTC + 5



Вы не можете начинать темы
Вы не можете отвечать на сообщения
Вы не можете редактировать свои сообщения
Вы не можете удалять свои сообщения
Вы не можете голосовать в опросах
Вы не можете прикреплять файлы к сообщениям
Вы не можете скачивать файлы