Частоты / OXV: The Manual (Даррен Фишер) [2013 г., фантастика, драма, мелодрама, WEB-DLRip]

Ответить на тему
 

Старый Дядька ®

Стаж: 4 года 11 месяцев

Сообщений: 566

Симпатии: 400

Частоты / OXV: The Manual-- Год выпуска: 2013
Страна: Австралия, Великобритания
Жанр: фантастика, драма, мелодрама
Продолжительность: 1:44:55
Перевод: Профессиональный (многоголосный) [официальный зук]-Режиссер: Даррен Фишер-В ролях: Дэниэл Фрайзер, Элинор Уайлд, Дилан Ллевелин, Georgina Minter-Brown, Оуэн Паг, Дэвид Бротон Дейвис, Дэвид Барнеби, Тимоти Блок, Риа Кэрролл, Том Инглэнд-Описание: Не слишком отдаленное будущее. Детей оценивают не только по интеллекту, но и по фреквенции — особой характеристике, показывающей резонанс ребенка с судьбой. Высокая фреквенция — и ты никогда не опоздаешь на поезд, даже если специально выйдешь на час позже. А по пути еще найдешь банкноту в 20 фунтов. Низкая — и все трудности этого мира словно собираются против тебя одного. Даже просто прийти на экзамен вовремя — большая проблема.
А что, если парень с супернизкой фреквенцией встретит девушку с супервысокой? Что, если законы вселенной устроены так, что они не могут быть рядом больше одной минуты? Главный герой находит способ изменить свою фреквенцию, чтобы увеличить этот лимит, но обнаруживает весьма странный побочный эффект…-Премьера (мир): 27 сентября 2013-Рейтинг:
 -Качество: WEB-DLRip
Формат: MPEG
Видео кодек: XviD
Аудио кодек: AC3-Видео: 1537 Кбит/сек, 720х408 пикселей (16:9), 25,000 кадров/сек
Аудио: 448 Кбит/сек, 2 канала, 48,0 КГц

Mediainfo

Общее
Полное имя : F:\Фильмы\Частоты.2013.PM.WEB-DLRip.(1.46)\Частоты.2013.PM.WEB-DLRip.(1.46).avi
Формат : AVI
Формат/Информация : Audio Video Interleave
Размер файла : 1,46 Гбайт
Продолжительность : 1 ч. 44 м.
Общий поток : 1995 Кбит/сек
Программа кодирования : VirtualDubMod 1.5.10.2 (build 2540/release)
Видео
Идентификатор : 0
Формат : MPEG-4 Visual
Профиль формата : Advanced [email protected]
Параметр BVOP формата : 3
Параметр QPel формата : Нет
Параметр GMC формата : Без точки перехода
Параметр матрицы формата : Выборочная
Идентификатор кодека : XVID
Идентификатор кодека/Подсказка : XviD
Продолжительность : 1 ч. 44 м.
Битрейт : 1537 Кбит/сек
Ширина : 720 пикселей
Высота : 408 пикселей
Соотношение сторон : 16:9
Частота кадров : 25,000 кадров/сек
Цветовое пространство : YUV
Субдискретизация насыщенности : 4:2:0
Битовая глубина : 8 бит
Тип развёртки : Прогрессивная
Метод сжатия : С потерями
Бит/(Пиксели*Кадры) : 0.209
Размер потока : 1,13 Гбайт (77%)
Библиотека кодирования : XviD 1.2.1 (UTC 2008-12-04)
Аудио
Идентификатор : 1
Формат : AC-3
Формат/Информация : Audio Coding 3
Расширение режима : CM (complete main)
Параметр Endianness формата : Big
Идентификатор кодека : 2000
Продолжительность : 1 ч. 44 м.
Вид битрейта : Постоянный
Битрейт : 448 Кбит/сек
Каналы : 2 канала
Расположение каналов : Front: L R
Частота : 48,0 КГц
Битовая глубина : 16 бит
Метод сжатия : С потерями
Размер потока : 336 Мбайт (22%)
Выравнивание : Разделение по промежуткам
Продолжительность промежутка : 40 мс. (1,00 видеокадр)
Время предзагрузки промежутка : 500 мс.

Скриншоты





Создавать темы 31-Дек-2014 03:04

[Профиль]  [ЛС] 
Показать сообщения:    
Ответить на тему

Текущее время: 20-Авг 13:11

Часовой пояс: UTC + 5



Вы не можете начинать темы
Вы не можете отвечать на сообщения
Вы не можете редактировать свои сообщения
Вы не можете удалять свои сообщения
Вы не можете голосовать в опросах
Вы не можете прикреплять файлы к сообщениям
Вы не можете скачивать файлы