Зубастики: Охотник за головами / Critters: Bounty Hunter (Джордан Дауни) [2014 г., короткометражка, ужасы, фантастика, триллер, ..., BDRip]

Ответить на тему
 

igor1968 ®

Стаж: 5 лет 5 месяцев

Сообщений: 366

Симпатии: 197

Зубастики: Охотник за головами / Critters: Bounty Hunter
Год выпуска: 2014
Страна: США
Жанр: короткометражка, ужасы, фантастика, триллер, ...
Продолжительность: 6mn 32s
Перевод: Любительский (одноголосый) [Васька Куролесов]
Режиссер: Джордан Дауни
В ролях: Джордан Дауни
Кэрол Гоанс
Кевин Стюарт
Описание: Фильм рассказывает об охотнике за головами, который выполняет задание по уничтожению зубастиков.- -

MediaInfo

General
Unique ID : 173385908510449646671631048284080920330 (0x8270E94BD788F3F5B6627A18409F570A)
Complete name : Critters Bounty Hunter.mkv
Format : Matroska
Format version : Version 4 / Version 2
File size : 62.3 MiB
Duration : 6mn 32s
Overall bit rate : 1 330 Kbps
Movie name : Release Group KINONAVSE100
Encoded date : UTC 2014-12-25 09:41:38
Writing application : mkvmerge v7.2.0 ('On Every Street') 64bit built on Sep 13 2014 15:52:10
Writing library : libebml v1.3.0 + libmatroska v1.4.1
_STATISTICS_WRITING_APP : mkvmerge v7.2.0 ('On Every Street') 64bit built on Sep 13 2014 15:52:10
_STATISTICS_WRITING_DATE_UTC : 2014-12-25 09:41:38
_STATISTICS_TAGS : BPS DURATION NUMBER_OF_FRAMES NUMBER_OF_BYTES
DURATION : 00:06:32.704000000
NUMBER_OF_FRAMES : 12272
NUMBER_OF_BYTES : 9424896
Video
ID : 1
Format : AVC
Format/Info : Advanced Video Codec
Format profile : [email protected]
Format settings, CABAC : Yes
Format settings, ReFrames : 1 frame
Format settings, GOP : M=1, N=60
Codec ID : V_MPEG4/ISO/AVC
Duration : 6mn 32s
Bit rate : 1 112 Kbps
Width : 1 280 pixels
Height : 720 pixels
Display aspect ratio : 16:9
Frame rate mode : Constant
Frame rate : 23.976 fps
Color space : YUV
Chroma subsampling : 4:2:0
Bit depth : 8 bits
Scan type : Progressive
Bits/(Pixel*Frame) : 0.050
Stream size : 52.0 MiB (84%)
Title : Release Group KINONAVSE100
Default : Yes
Forced : No
Audio
ID : 2
Format : AC-3
Format/Info : Audio Coding 3
Mode extension : CM (complete main)
Format settings, Endianness : Big
Codec ID : A_AC3
Duration : 6mn 32s
Bit rate mode : Constant
Bit rate : 192 Kbps
Channel count : 2 channels
Channel positions : Front: L R
Sampling rate : 48.0 KHz
Bit depth : 16 bits
Compression mode : Lossy
Stream size : 8.99 MiB (14%)
Title : Release Group KINONAVSE100 Васька Куролесов
Default : Yes
Forced : No
-Качество: BDRip
Формат: MKV
Видео кодек: AVC
Аудио кодек: AC3
Видео: 1280x720, 1112 Kbps, 23.976 fps
Аудио: AC3, 48.0 KHz, 2ch, 192 Kbps

Скриншоты





Последний раз редактировалось: igor1968 (2015-01-01 00:35), всего редактировалось 1 раз

Создавать темы 31-Дек-2014 21:43

[Профиль]  [ЛС] 

Хамидулла

Стаж: 5 лет 7 месяцев

Сообщений: 60

Симпатии: 1

о снова зубастики раньше было такое фильм новая версия )) интересно

_________________
Подпись отключена за нарушение правил форума

Создавать темы 01-Янв-2015 00:00

[Профиль]  [ЛС] 

pamirmir

Стаж: 5 лет

Сообщений: 70

Симпатии: 2

Спасибо

Создавать темы 01-Янв-2015 09:44

[Профиль]  [ЛС] 

nravich

Стаж: 3 года 8 месяцев

Сообщений: 38

Симпатии: 16

907099 Сегодня 00:00
ТЫ че за компом сидел.

Создавать темы 01-Янв-2015 13:18

[Профиль]  [ЛС] 

marvel

Стаж: 6 лет 6 месяцев

Сообщений: 50

Симпатии: 1

907181
907099 Сегодня 00:00
ТЫ че за компом сидел.
mm mm

Создавать темы 01-Янв-2015 19:47

[Профиль]  [ЛС] 

igor1968 ®

Стаж: 5 лет 5 месяцев

Сообщений: 366

Симпатии: 197

Зубастики. Квадрология / Critters 1 - 4

Создавать темы 01-Янв-2015 21:46

[Профиль]  [ЛС] 

kralyan

Стаж: 4 года 11 месяцев

Сообщений: 72

Симпатии: 7

907099о снова зубастики раньше было такое фильм новая версия )) интересно
Новый год подкрался незаметно...

Создавать темы 13-Янв-2015 01:14

[Профиль]  [ЛС] 

axeman

Стаж: 4 года 9 месяцев

Сообщений: 380

Симпатии: 50

907181
907099 Сегодня 00:00
ТЫ че за компом сидел.
В новый год за компом ахаха

Создавать темы 13-Янв-2015 20:57

[Профиль]  [ЛС] 
Показать сообщения:    
Ответить на тему

Текущее время: 23-Авг 07:32

Часовой пояс: UTC + 5



Вы не можете начинать темы
Вы не можете отвечать на сообщения
Вы не можете редактировать свои сообщения
Вы не можете удалять свои сообщения
Вы не можете голосовать в опросах
Вы не можете прикреплять файлы к сообщениям
Вы не можете скачивать файлы