Ярость / Fury (Дэвид Эйр / David Ayer) [2014, Великобритания, Китай, США, Боевик, военный, WEB-DL (1080p)] Dub [iTunes] + Original Eng

Ответить на тему
 

yusuf.0088 ®

Стаж: 3 года 10 месяцев

Сообщений: 116

Симпатии: 69

Ярость / Fury
«Война никогда не кончается спокойно»
-- Год выпуска: 2014
Страна: Великобритания, Китай, США
Жанр: Боевик, военный
Продолжительность: 02:14:59--Перевод: Профессиональный (полное дублирование) [iTunes]
Оригинальная дорожка: Английский
Cубтитры: нет--Режиссер: Дэвид Эйр / David Ayer--В ролях: Брэд Питт, Шайа ЛаБаф, Логан Лерман, Джон Бернтал, Майкл Пенья--Описание:
Апрель 1945. Союзники делают свой заключительный натиск в Великой Отечественной войне. Укрепленный предшествующими сражениями армейский сержант по имени Вардэдди (Брэд Питт) командует танком Шерман и с командой из пяти человек в смертельной миссии в тылу врага. Превзойденный численностью и подавленный, Вардэдди и его команда сталкиваются с подавляющими разногласиями в их героических попытках сражаться в самом сердце нацистской Германии.-- --Качество: WEB-DL (1080p)
Формат: mkv--Видео: MPEG-4 AVC / 4656 Кбит/с, 1920x798
Аудио 1: Русский AC3 6 ch / 384 Кбит/с / 48КГц |Дубляж|
Аудио 2: Английский AC3 6 ch / 384 Кбит/с / 48КГц |Original|

Media Info

Формат : Matroska
Версия формата : Version 4 / Version 2
Размер файла : 4,23 Гбайт
Продолжительность : 2 ч. 14 м.
Общий поток : 4500 Кбит/сек
Дата кодирования : UTC 2015-01-01 06:41:08
Программа кодирования : mkvmerge v6.0.0 ('Coming Up For Air') built on Jan 20 2013 09:52:00
Библиотека кодирования : libebml v1.3.0 + libmatroska v1.4.0
DURATION : 02:14:38.080000000
NUMBER_OF_FRAMES : 252440
NUMBER_OF_BYTES : 387747840
_STATISTICS_WRITING_APP : mkvmerge v7.4.0 ('Circles') 64bit built on Dec 12 2014 12:19:56
_STATISTICS_WRITING_DATE_UTC : 2014-12-30 05:30:09
_STATISTICS_TAGS : BPS DURATION NUMBER_OF_FRAMES NUMBER_OF_BYTES
Видео
Идентификатор : 1
Формат : AVC
Формат/Информация : Advanced Video Codec
Профиль формата : [email protected]
Параметр CABAC формата : Да
Параметр ReFrames формата : 5 кадров
Идентификатор кодека : V_MPEG4/ISO/AVC
Продолжительность : 2 ч. 14 м.
Битрейт : 3642 Кбит/сек
Ширина : 1920 пикселей
Высота : 798 пикселей
Соотношение сторон : 2,40:1
Режим частоты кадров : Постоянный
Частота кадров : 23,976 кадра/сек
Цветовое пространство : YUV
Субдискретизация насыщенности : 4:2:0
Битовая глубина : 8 бит
Тип развёртки : Прогрессивная
Бит/(Пиксели*Кадры) : 0.099
Размер потока : 3,43 Гбайт (81%)
Язык : English
Default : Да
Forced : Нет
Основные цвета : BT.709
Характеристики трансфера : BT.709
Коэффициенты матрицы : BT.709
Аудио #1
Идентификатор : 2
Формат : AC-3
Формат/Информация : Audio Coding 3
Расширение режима : CM (complete main)
Параметр Endianness формата : Big
Идентификатор кодека : A_AC3
Продолжительность : 2 ч. 14 м.
Вид битрейта : Постоянный
Битрейт : 384 Кбит/сек
Каналы : 6 каналов
Расположение каналов : Front: L C R, Side: L R, LFE
Частота : 48,0 КГц
Битовая глубина : 16 бит
Метод сжатия : С потерями
Размер потока : 370 Мбайт (9%)
Язык : Russian
Default : Да
Forced : Нет
Аудио #2
Идентификатор : 3
Формат : AC-3
Формат/Информация : Audio Coding 3
Расширение режима : CM (complete main)
Параметр Endianness формата : Big
Идентификатор кодека : A_AC3
Продолжительность : 2 ч. 14 м.
Вид битрейта : Постоянный
Битрейт : 384 Кбит/сек
Каналы : 6 каналов
Расположение каналов : Front: L C R, Side: L R, LFE
Частота : 48,0 КГц
Битовая глубина : 16 бит
Метод сжатия : С потерями
Размер потока : 370 Мбайт (9%)
Язык : English
Default : Нет
Forced : Нет
Меню
00:00:00.000 : en:1
00:07:57.000 : en:2
00:20:23.000 : en:3
00:26:37.000 : en:4
00:37:23.000 : en:5
00:43:21.000 : en:6
00:51:56.000 : en:7
01:01:16.000 : en:8
01:13:42.000 : en:9
01:18:25.000 : en:10
01:26:16.000 : en:11
01:29:45.000 : en:12
01:35:33.000 : en:13
01:48:05.000 : en:14
01:57:42.000 : en:15
02:00:34.000 : en:16

Скриншоты

Создавать темы 01-Янв-2015 12:32

[Профиль]  [ЛС] 

Anton

Стаж: 7 лет 10 месяцев

Сообщений: 83

Симпатии: 4

Качаем

_________________
Подпись отключена за нарушение правил форума

Создавать темы 01-Янв-2015 14:48

[Профиль]  [ЛС] 

Топик был перенесен из форума Зарубежное кино в форум HD-AVC
Mixer City

Создавать темы 01-Янв-2015 17:37

 

Jahongir B

Стаж: 3 года 9 месяцев

Сообщений: 6

только сегодня стал качать с этой темы: https://tas-ix.net/viewtopic.php?t=102022
а его перенесли в архив. На 51% остановилась закачка.
Тот самый случай когда соблюдение правил является наивысшей формой д****изма.
Модераторы, что вы мне предлагаете делать с уже 51% скачанным?

Создавать темы 01-Янв-2015 22:13

[Профиль]  [ЛС] 

IIpu3pak

Стаж: 5 лет 5 месяцев

Сообщений: 258

Симпатии: 53

Jahongir B, не трогать скачанное, начать закачку отсюда и указать путь к наполовину готовому файлу.

Создавать темы 01-Янв-2015 22:26

[Профиль]  [ЛС] 

Jahongir B

Стаж: 3 года 9 месяцев

Сообщений: 6

а как это сделать?

Создавать темы 01-Янв-2015 22:49

[Профиль]  [ЛС] 

mukimov

Стаж: 4 года 11 месяцев

Сообщений: 15

Симпатии: 1

Жесть! Фильм про то как один в поле войн. Не ну Бред ну :)

Создавать темы 02-Янв-2015 10:32

[Профиль]  [ЛС] 

Michel

Стаж: 6 лет 8 месяцев

Сообщений: 78

Симпатии: 5

907340только сегодня стал качать с этой темы: https://tas-ix.net/viewtopic.php?t=102022
а его перенесли в архив. На 51% остановилась закачка.
Тот самый случай когда соблюдение правил является наивысшей формой д****изма.
Модераторы, что вы мне предлагаете делать с уже 51% скачанным?
Думаю нужно изменить правила! И сделать как на забугорных трекерах "Пока есть пир на раздаче, её не трогают!"

Создавать темы 02-Янв-2015 12:37

[Профиль]  [ЛС] 

Ronchi

Стаж: 5 лет 4 месяца

Сообщений: 42

Симпатии: 1

907340только сегодня стал качать с этой темы: https://tas-ix.net/viewtopic.php?t=102022
а его перенесли в архив. На 51% остановилась закачка.
Тот самый случай когда соблюдение правил является наивысшей формой д****изма.
Модераторы, что вы мне предлагаете делать с уже 51% скачанным?
Если файл одинаковый, просто перехешируй
Просто обнови торрент файл, скачай с этого релиза торрент файл и замени

Создавать темы 03-Янв-2015 02:11

[Профиль]  [ЛС] 

Сталкерша

Стаж: 5 лет 4 месяца

Сообщений: 41

Вечер добрый..один вопрос,флешка 8 гб,фильм .4,23,почему пишет что места недостаточно??

Создавать темы 05-Янв-2015 21:03

[Профиль]  [ЛС] 

Vfhfn

Стаж: 5 лет 4 месяца

Сообщений: 20

Симпатии: 1

908489Вечер добрый..один вопрос,флешка 8 гб,фильм .4,23,почему пишет что места недостаточно??
Форматни

Создавать темы 08-Янв-2015 21:07

[Профиль]  [ЛС] 

makedonec

Стаж: 6 лет 11 месяцев

Сообщений: 63

Симпатии: 21

Сталкерша, У Вас флешка отформатирована в файловой системе FAT32, что соответствует 2 в степени 32, это означает, что максимальный размер для одного файла около 4 Гб. Отформатируйте её в системе NTFS, в ней можно будет записать файл и до 2 Тб.

Создавать темы 26-Янв-2015 19:43

[Профиль]  [ЛС] 

makedonec

Стаж: 6 лет 11 месяцев

Сообщений: 63

Симпатии: 21

Сталкерша, Конечно, при носителе соответствующего размера )

Создавать темы 26-Янв-2015 19:43

[Профиль]  [ЛС] 
Показать сообщения:    
Ответить на тему

Текущее время: 18-Авг 00:36

Часовой пояс: UTC + 5



Вы не можете начинать темы
Вы не можете отвечать на сообщения
Вы не можете редактировать свои сообщения
Вы не можете удалять свои сообщения
Вы не можете голосовать в опросах
Вы не можете прикреплять файлы к сообщениям
Вы не можете скачивать файлы