Глубокое синее море / Deep Blue Sea (Ренни Харлин / Renny Harlin) [1999, Фантастика, Боевик, Триллер, BDRip 720p] Dub + Orig + Sub (Rus, Eng)

Ответить на тему
 

Machine ®

Стаж: 5 лет 2 месяца

Сообщений: 209

Симпатии: 68

Глубокое синее море / Deep Blue Sea--
Год выпуска: 1999
Страна: США, Австралия
Жанр: Фантастика, Боевик, Триллер
Продолжительность: 01:45:00
Перевод: Профессиональный (полное дублирование) + Original
Cубтитры: Русские, Английские

Режиссер: Ренни Харлин / Renny Harlin

В ролях: Томас Джейн (Carter Blake), Саффрон Берроуз (Dr. Susan McCallister), LL Кул Джей (Sherman 'Preacher' Dudley), Майкл Рапапорт (Tom 'Scoggs' Scoggins), Стеллан Скарсгард (Jim Whitlock), Сэмюэл Л. Джексон (Russell Franklin), Жаклин МакКензи (Janice Higgins), Аида Туртурро (Brenda Kerns), Кристос (Boat Captain), Дэниэл Рей (Helicopter Pilot), Валенте Родригес (Helicopter Co-Pilot), Брент Роам (Helicopter Winch Operator)


Описание: Ученые подводной лаборатории «Акватика», разрабатывая препарат от болезни Альцгеймера, находят способ генетического увеличения мозга подопытных акул. Агрессивные и злобные хищники превращаются в думающих монстров-убийц, способных перехитрить своих создателей. Герои фильма пытаются справиться с разъяренными хищниками. Но спастись от острых челюстей огромных и умных акул практически невозможно…

 

Качество: BDRip 720p (Исходник: Blu-ray Disc)
Формат: MKV
Видео кодек: AVC
Аудио кодек: AC3
Видео: AVC, x264, 1280x532 (2.40:1); 23.976 fps; ~5256 kbps
Аудио #1: 48 kHz, AC3 Dolby Digital, 3/2 (L,C,R,l,r) + LFE ch, ~384.00 kbps [Дублированный]
Аудио #2: 48 kHz, AC3 Dolby Digital, 3/2 (L,C,R,l,r) + LFE ch, ~640.00 kbps [Оригинал]

Знаете ли вы, что...

  • Самолет, использованный в фильме тот же, что снимали в фильме «Шесть дней, семь ночей» (1998).
  • Акулы погибают теми же способами, что в фильмах серии «Челюсти». Первую уничтожает баллон со сжатым газом, вторую убивает высоковольтный провод, третью взрывает бомба.
  • MediaInfo

    General
    Unique ID : 238898039416042278931843234080429698235 (0xB3BA16BA117733C1B20C63C05EEFECBB)
    Complete name : D:\Video\Фильмы\Torrent Files\Movies\Glubokoe.Sinee.More.1999.DUAL.BDRip.720p.x264.AC3.-HQ-ViDEO.mkv
    Format : Matroska
    Format version : Version 2
    File size : 4.61 GiB
    Duration : 1h 45mn
    Overall bit rate : 6 280 Kbps
    Movie name : Deep Blue Sea (1999) / Release by HQ-ViDEO
    Encoded date : UTC 2012-10-28 18:19:26
    Writing application : mkvmerge v5.5.0 ('Healer') built on Apr 6 2012 21:43:24
    Writing library : libebml v1.2.3 + libmatroska v1.3.0
    Video
    ID : 1
    Format : AVC
    Format/Info : Advanced Video Codec
    Format profile : [email protected]
    Format settings, CABAC : Yes
    Format settings, ReFrames : 8 frames
    Codec ID : V_MPEG4/ISO/AVC
    Duration : 1h 45mn
    Bit rate : 5 256 Kbps
    Width : 1 280 pixels
    Height : 532 pixels
    Display aspect ratio : 2.40:1
    Frame rate mode : Constant
    Frame rate : 23.976 fps
    Color space : YUV
    Chroma subsampling : 4:2:0
    Bit depth : 8 bits
    Scan type : Progressive
    Bits/(Pixel*Frame) : 0.322
    Stream size : 3.76 GiB (82%)
    Title : Encode by EbP
    Writing library : x264 core 104 r1688 0b36c6d
    Encoding settings : cabac=1 / ref=8 / deblock=1:-3:-3 / analyse=0x3:0x113 / me=tesa / subme=10 / psy=1 / psy_rd=0.90:0.00 / mixed_ref=1 / me_range=16 / chroma_me=1 / trellis=2 / 8x8dct=1 / cqm=0 / deadzone=21,11 / fast_pskip=0 / chroma_qp_offset=-2 / threads=6 / sliced_threads=0 / nr=0 / decimate=0 / interlaced=0 / constrained_intra=0 / bframes=7 / b_pyramid=2 / b_adapt=2 / b_bias=0 / direct=3 / weightb=1 / open_gop=0 / weightp=2 / keyint=250 / keyint_min=23 / scenecut=40 / intra_refresh=0 / rc=2pass / mbtree=0 / bitrate=5256 / ratetol=1.0 / qcomp=0.60 / qpmin=10 / qpmax=51 / qpstep=4 / cplxblur=20.0 / qblur=0.5 / ip_ratio=1.40 / pb_ratio=1.30 / aq=1:0.70
    Language : English
    Default : Yes
    Forced : No
    Audio #1
    ID : 2
    Format : AC-3
    Format/Info : Audio Coding 3
    Mode extension : CM (complete main)
    Format settings, Endianness : Big
    Codec ID : A_AC3
    Duration : 1h 45mn
    Bit rate mode : Constant
    Bit rate : 384 Kbps
    Channel(s) : 6 channels
    Channel positions : Front: L C R, Side: L R, LFE
    Sampling rate : 48.0 KHz
    Bit depth : 16 bits
    Compression mode : Lossy
    Stream size : 288 MiB (6%)
    Title : AC3 5.1 @ 384 kbps - Дубляж, Мосфильм
    Language : Russian
    Default : Yes
    Forced : No
    Audio #2
    ID : 3
    Format : AC-3
    Format/Info : Audio Coding 3
    Mode extension : CM (complete main)
    Format settings, Endianness : Big
    Codec ID : A_AC3
    Duration : 1h 45mn
    Bit rate mode : Constant
    Bit rate : 640 Kbps
    Channel(s) : 6 channels
    Channel positions : Front: L C R, Side: L R, LFE
    Sampling rate : 48.0 KHz
    Bit depth : 16 bits
    Compression mode : Lossy
    Stream size : 481 MiB (10%)
    Title : AC3 5.1 @ 640 kbps
    Language : English
    Default : No
    Forced : No
    Text #1
    ID : 4
    Format : UTF-8
    Codec ID : S_TEXT/UTF8
    Codec ID/Info : UTF-8 Plain Text
    Language : Russian
    Default : No
    Forced : No
    Text #2
    ID : 5
    Format : UTF-8
    Codec ID : S_TEXT/UTF8
    Codec ID/Info : UTF-8 Plain Text
    Title : SDH
    Language : English
    Default : No
    Forced : No
    Menu
    00:00:00.000 : en:00:00:00.000
    00:03:54.526 : en:00:03:54.526
    00:07:07.844 : en:00:07:07.844
    00:10:46.646 : en:00:10:46.646
    00:13:23.011 : en:00:13:23.011
    00:15:16.707 : en:00:15:16.707
    00:18:30.359 : en:00:18:30.359
    00:23:19.189 : en:00:23:19.189
    00:29:09.915 : en:00:29:09.915
    00:33:35.805 : en:00:33:35.805
    00:35:51.316 : en:00:35:51.316
    00:38:29.349 : en:00:38:29.349
    00:40:15.330 : en:00:40:15.330
    00:43:01.746 : en:00:43:01.746
    00:46:54.395 : en:00:46:54.395
    00:50:59.390 : en:00:50:59.390
    00:54:42.571 : en:00:54:42.571
    00:57:23.732 : en:00:57:23.732
    01:01:41.364 : en:01:01:41.364
    01:04:23.943 : en:01:04:23.943
    01:08:35.361 : en:01:08:35.361
    01:12:09.867 : en:01:12:09.867
    01:15:13.092 : en:01:15:13.092
    01:16:08.814 : en:01:16:08.814
    01:18:00.509 : en:01:18:00.509
    01:19:55.749 : en:01:19:55.749
    01:23:44.353 : en:01:23:44.353
    01:26:14.503 : en:01:26:14.503
    01:28:44.819 : en:01:28:44.819
    01:31:19.057 : en:01:31:19.057
    01:33:42.158 : en:01:33:42.158
    01:35:31.059 : en:01:35:31.059
    01:37:36.893 : en:01:37:36.893

    Скриншоты

    Создавать темы 01-Янв-2015 15:53

    [Профиль]  [ЛС] 

    nadejda.ru

    Стаж: 5 лет 5 месяцев

    Сообщений: 7

    Симпатии: 1

    Отлично! Качаем однозначно! лучший фильм ужасов об акулах.

    Создавать темы 03-Янв-2015 11:59

    [Профиль]  [ЛС] 
    Показать сообщения:    
    Ответить на тему

    Текущее время: 23-Окт 22:19

    Часовой пояс: UTC + 5



    Вы не можете начинать темы
    Вы не можете отвечать на сообщения
    Вы не можете редактировать свои сообщения
    Вы не можете удалять свои сообщения
    Вы не можете голосовать в опросах
    Вы не можете прикреплять файлы к сообщениям
    Вы не можете скачивать файлы