Одержимость Майкла Кинга / he Possession of Michael King (Дэвид Юнг) [2014 г., ужасы, HDRip]

Ответить на тему
 

nizom_19 ®

Стаж: 4 года 3 месяца

Сообщений: 60

Симпатии: 17

Одержимость Майкла Кинга / he Possession of Michael King
Год выпуска: 2014
Страна: США
Жанр: ужасы
Продолжительность: 01:23:24
Перевод: Профессиональный (полное дублирование) [Чистый звук] Официальный
Режиссер: Дэвид Юнг
В ролях: Шэйн Джонсон, Элла Андерсон, Кара Пифко, Кристал Альварез, Томас Арана, Люк Бэйнс, Дейл Дикки, Каллен Дуглас, Майкл Рэй Эскамиллья, Рамона Дж. Фаррингтон
Описание: Главный герой фильма — режиссер-документалист, который не верит ни в Бога, ни в дьявола. Когда умирает его жена, он решает снять фильм о религии и спиритуализме и доказать, что вся мистика — это просто выдумка. В процессе съемок он встречается с демонологами, некромантами и оккультистами, которые испытывают на нем самые темные и сильные заклятия. Эти обряды пробуждают неведомые и безудержные силы зла…...
Доп. информация: Сценарий - Дэвид Юнг, Теди Сарафьян
Продюсер - Пол Брукс, Джейм Бурк, Гай Данелла, ...
Оператор - Фил Пармет
Композитор -
Художник - Габор Норман, Джули Зиа, Франсин Лекутре, ...
Монтаж - Джейк Йорк
Качество: HDRip
Формат: AVI
Видео кодек: XviD
Аудио кодек: AC3
Видео: 1946 Kb/s, 720x400
Аудио: 384 Kb/s (2 ch)

Media Info

D:\kino\Oderjimosti.maikla.kinga.2014.avi
General
Complete name : D:\kino\Oderjimosti.maikla.kinga.2014.avi
Format : AVI
Format/Info : Audio Video Interleave
File size : 1.36 GiB
Duration : 1h 23mn
Overall bit rate : 2 340 Kbps
Writing application : VirtualDubMod 1.5.10.2 (build 2540/release)
Writing library : VirtualDubMod build 2540/release
Video #0
ID : 0
Format : MPEG-4 Visual
Format profile : Advanced [email protected]
Format settings, BVOP : 2
Format settings, QPel : No
Format settings, GMC : No warppoints
Format settings, Matrix : Default (H.263)
Codec ID : XVID
Codec ID/Hint : XviD
Duration : 1h 23mn
Bit rate : 1 947 Kbps
Width : 720 pixels
Height : 400 pixels
Display aspect ratio : 16:9
Frame rate : 23.976 fps
Color space : YUV
Chroma subsampling : 4:2:0
Bit depth : 8 bits
Scan type : Progressive
Compression mode : Lossy
Bits/(Pixel*Frame) : 0.282
Stream size : 1.13 GiB (83%)
Writing library : XviD 1.2.1 (UTC 2008-12-04)
Audio #1
ID : 1
Format : AC-3
Format/Info : Audio Coding 3
Mode extension : CM (complete main)
Format settings, Endianness : Big
Codec ID : 2000
Duration : 1h 23mn
Bit rate mode : Constant
Bit rate : 384 Kbps
Channel(s) : 2 channels
Channel positions : Front: L R
Sampling rate : 48.0 KHz
Bit depth : 16 bits
Compression mode : Lossy
Stream size : 229 MiB (16%)
Alignment : Split accross interleaves
Interleave, duration : 42 ms (1.00 video frame)
Interleave, preload duration : 500 ms

Скриншоты





Последний раз редактировалось: nizom_19 (2015-01-01 16:06), всего редактировалось 1 раз

Создавать темы 01-Янв-2015 15:55

[Профиль]  [ЛС] 

iamlerman

Стаж: 3 года 6 месяцев

Сообщений: 4

это HDRip

Создавать темы 01-Янв-2015 16:04

[Профиль]  [ЛС] 

nizom_19 ®

Стаж: 4 года 3 месяца

Сообщений: 60

Симпатии: 17

iamlerman, да

Создавать темы 01-Янв-2015 16:06

[Профиль]  [ЛС] 

Cheeez

Стаж: 4 года 10 месяцев

Сообщений: 15

как фильм?

Создавать темы 03-Янв-2015 13:26

[Профиль]  [ЛС] 

Tricks

Стаж: 4 года 9 месяцев

Сообщений: 602

Симпатии: 21

Фильм отстой!

Создавать темы 03-Янв-2015 14:36

[Профиль]  [ЛС] 

nizom_19 ®

Стаж: 4 года 3 месяца

Сообщений: 60

Симпатии: 17

фильм мне понравился вроде не плохо

Создавать темы 04-Янв-2015 16:16

[Профиль]  [ЛС] 

RoRik-98

Стаж: 4 года 9 месяцев

Сообщений: 19

Симпатии: 1

Этот фильм наподобие «Паранормального явления»

Создавать темы 12-Янв-2015 17:49

[Профиль]  [ЛС] 
Показать сообщения:    
Ответить на тему

Текущее время: 20-Авг 14:59

Часовой пояс: UTC + 5



Вы не можете начинать темы
Вы не можете отвечать на сообщения
Вы не можете редактировать свои сообщения
Вы не можете удалять свои сообщения
Вы не можете голосовать в опросах
Вы не можете прикреплять файлы к сообщениям
Вы не можете скачивать файлы