INNA - Yalla [2015 г., Dance, YouTube 1080p]

Ответить на тему
 

bbk ®

Стаж: 6 лет 11 месяцев

Сообщений: 435

Симпатии: 479

INNA - Yalla
Год выпуска: 2015
Страна: Румыния
Жанр: Dance
Продолжительность: 00:03:16
Описание: Инна представила на суд зрителей новый видеоряд на трек “Yalla”. Песня стала синглом в поддержку четвёртого студийного альбома “INNA”, выход которого состоялся в конце октября. В ролике румынская певица примерила на себя образ восточной красавицы, чем привлекла внимание слушателей из мусульманских стран. Несмотря на откровенные наряды, в целом зрители остались довольны увиденным.
Качество: YouTube 1080p
Формат: MP4
Видео кодек: AVC
Аудио кодек: AAC
Видео: AVC, 1920x1080, 25fps, 1900kbps
Аудио: AAC, 44100Hz, 2 ch, 126kbps

Информация о файле

General
    Complete name : INNA - Yalla (Official Video).mp4
    Format : MPEG-4
    Format profile : Base Media
    Codec ID : isom
    File size : 47.5 MiB
    Duration : 3mn 16s
    Overall bit rate mode : Variable
    Overall bit rate : 2 028 Kbps
    Encoded date : UTC 2015-11-14 12:25:47
    Tagged date : UTC 2015-11-14 12:25:47
    Writing application : My MP4Box GUI 0.6.0.6 <http://my-mp4box-gui.zymichost.com>
  Video #1
    ID : 1
    Format : AVC
    Format/Info : Advanced Video Codec
    Format profile : [email protected]
    Format settings, CABAC : Yes
    Format settings, ReFrames : 3 frames
    Codec ID : avc1
    Codec ID/Info : Advanced Video Coding
    Duration : 3mn 16s
    Bit rate : 1 900 Kbps
    Maximum bit rate : 3 761 Kbps
    Width : 1 920 pixels
    Height : 1 080 pixels
    Display aspect ratio : 16:9
    Frame rate mode : Constant
    Frame rate : 25.000 fps
    Color space : YUV
    Chroma subsampling : 4:2:0
    Bit depth : 8 bits
    Scan type : Progressive
    Bits/(Pixel*Frame) : 0.037
    Stream size : 44.5 MiB (94%)
    Encoded date : UTC 2015-11-13 05:38:16
    Tagged date : UTC 2015-11-14 12:25:51
    Color range : Limited
    Color primaries : BT.709
    Transfer characteristics : BT.709
    Matrix coefficients : BT.709
  Audio #2
    ID : 2
    Format : AAC
    Format/Info : Advanced Audio Codec
    Format profile : LC
    Codec ID : 40
    Duration : 3mn 16s
    Bit rate mode : Variable
    Bit rate : 126 Kbps
    Maximum bit rate : 134 Kbps
    Channel(s) : 2 channels
    Channel positions : Front: L R
    Sampling rate : 44.1 KHz
    Compression mode : Lossy
    Stream size : 2.94 MiB (6%)
    Encoded date : UTC 2015-11-14 12:25:50
    Tagged date : UTC 2015-11-14 12:25:51


Последний раз редактировалось: bbk (2015-11-14 18:52), всего редактировалось 3 раз(а)

Создавать темы 01-Янв-2015 19:37

[Профиль]  [ЛС] 
Показать сообщения:    
Ответить на тему

Текущее время: 17-Окт 14:39

Часовой пояс: UTC + 5



Вы не можете начинать темы
Вы не можете отвечать на сообщения
Вы не можете редактировать свои сообщения
Вы не можете удалять свои сообщения
Вы не можете голосовать в опросах
Вы не можете прикреплять файлы к сообщениям
Вы не можете скачивать файлы