Аватар Легенда о Корре / The Legend of Korra / Книга 3: Перемена / Серии: 1-13 из 13 (Майкл Данте Димартино, Брайан Кониецко / Michael Dante DiMartino, Bryan Konietzko) [2014, мультсериал, приключения, семейный, фэнтези, WEBRip] Dub

Ответить на тему
 

FireHowler ®

Стаж: 4 года 4 месяца

Сообщений: 270

Симпатии: 153

Аватар Легенда о Корре / The Legend of Korra
Страна: США
Жанр: мультсериал, приключения, семейный, фэнтези
Продолжительность: ~ 23 минуты
Год выпуска: 2014
Перевод: Профессиональный (дублированный) [Nickelodeon]
Русские субтитры: нет
Режиссёр: Майкл Данте Димартино, Брайан Кониецко / Michael Dante DiMartino, Bryan Konietzko
Роли озвучивали: Ольга Шорохова, Александр Гаврилин, Валерий Сторожик, Владимир Антоник, Мария Овчинникова, Никита Прозоровский, Ольга Сирина
Описание: Мир вступает в новую эру! Гармоническое сближение вызвало сдвиг в энергетическом поле планеты, а Республиканский город спустя недели всё ещё не оправился после битвы Корры и УнаВаату. Весь город зарос и превратился в джунгли, которые новоприбывшие духи считают своим домом. Но не ждут ли наш город ещё какие-то перемены?

Качество: WEBRip
Формат: AVI
Видео: XVID, 720 x 400 (16:9), 29.970 fps, ~1 453 Kbps
Аудио: MPEG Audio Layer 3, 48.0 KHz, 2 ch, 192 Kbps
Субтитры: отсутствуют

Список серий

Глава 1: Глоток свежего воздуха
Глава 2: Перерождение
Глава 3: Королева Земли
Глава 4: В опасности
Глава 5: Клан Металла
Глава 6: Старые раны
Глава 7: Истинный Маг Воздуха
Глава 8: Ужас внутри
Глава 9: Надзор (The Stakeout)
Глава 10: Да здравствует Королева (Long Live the Queen)
Глава 11: Ультиматум (The Ultimatum)
Глава 12: Вступи в пустоту (Enter the Void)
Глава 13: Яд Красного лотоса (Venom of the Red Lotus)

Подробные технические данные

GeneralПолное имя : Аватар легенда о Корре\Книга 3 Перемены (Главы 1-6)\27. Глоток свежего воздуха.aviФормат : AVIФормат/Информация : Audio Video InterleaveРазмер файла : 269 MiBПродолжительность : 22mn 45sОбщий поток : 1 655 KbpsПрограмма кодирования : VirtualDubMod 1.5.10.3 | www.virtualdub-fr.org || (build 2550/release)Библиотека кодирования : VirtualDubMod build 2550/release
VideoИдентификатор : 0Формат : MPEG-4 VisualПрофиль формата : Advanced [email protected]Параметр BVOP формата : 2Параметр QPel формата : NoПараметр GMC формата : No warppointsПараметр матрицы формата : Default (MPEG)Идентификатор кодека : XVIDИдентификатор кодека/Подсказка : XviDПродолжительность : 22mn 45sБитрейт : 1 451 KbpsШирина : 720 pixelsВысота : 400 pixelsСоотношение сторон : 16:9Частота кадров : 29.970 fpsЦветовое пространство : YUVСубдискретизация насыщенности : 4:2:0Битовая глубина : 8 bitsТип развёртки : ProgressiveМетод сжатия : LossyБит/(Пиксели*Кадры) : 0.168Размер потока : 236 MiB (88%)Библиотека кодирования : XviD 1.2.1 (UTC 2008-12-04)
AudioИдентификатор : 1Формат : MPEG AudioВерсия формата : Version 1Профиль формата : Layer 3Идентификатор кодека : 55Идентификатор кодека/Подсказка : MP3Продолжительность : 22mn 45sВид битрейта : ConstantБитрейт : 192 KbpsКаналы : 2 channelsЧастота : 48.0 KHzМетод сжатия : LossyРазмер потока : 31.3 MiB (12%)Выравнивание : Aligned on interleavesПродолжительность промежутка : 33 ms (1.00 video frame)Время предзагрузки промежутка : 504 msБиблиотека кодирования : LAME3.99rНастройки программы : -m s -V 4 -q 2 -lowpass 18.6 -b 192

Скриншоты



Создавать темы 02-Янв-2015 13:00

[Профиль]  [ЛС] 

георгий1987

Стаж: 4 года 6 месяцев

Сообщений: 16

Симпатии: 1

когда раздача?

Создавать темы 03-Янв-2015 01:02

[Профиль]  [ЛС] 

георгий1987

Стаж: 4 года 6 месяцев

Сообщений: 16

Симпатии: 1

кто нибудь помогите скачать пожалуйста а то совсем не качает

Создавать темы 21-Янв-2015 00:21

[Профиль]  [ЛС] 
Показать сообщения:    
Ответить на тему

Текущее время: 21-Сен 17:27

Часовой пояс: UTC + 5



Вы не можете начинать темы
Вы не можете отвечать на сообщения
Вы не можете редактировать свои сообщения
Вы не можете удалять свои сообщения
Вы не можете голосовать в опросах
Вы не можете прикреплять файлы к сообщениям
Вы не можете скачивать файлы