Лучшее во мне / The Best of Me (Майкл Хоффман) [2014 г., Драма, мелодрама, WEB-DLRip] [iTunes]

Ответить на тему
 

mp1988 ®

Стаж: 6 лет 10 месяцев

Сообщений: 607

Симпатии: 971

Лучшее во мне / The Best of Me-- Год выпуска: 2014
Страна: США / DiNovi Pictures, Finch Entertainment, Relativity Media, Surefire Entertainment Capital
Жанр: Драма, мелодрама
Продолжительность: 01:50:55
Перевод: Профессиональный (полное дублирование) [iTunes]--Режиссер: Майкл Хоффман--В ролях: Джеймс Марсден, Мишель Монахэн, Лиана Либерато, Люк Брейси, Джералд МакРэйни, Кэролайн Гудолл, Скайлер Фиск, Джон Тенни, Себастьян--Описание: История о двух бывших возлюбленных подростках. Никто из них не жил жизнью, которую они представляли и никто не может забыть страстную первую любовь, которая изменила всю жизнь. И вот обоих зовут на похороны их наставника, который когда-то дал им приют…-- --Качество: WEB-DLRip
Формат: AVI
Видео кодек: XviD
Аудио кодек: AC3
Видео: Xvid 720x304 24fps 1383kbps
Аудио: Dolby AC3 48000Hz 6ch 384kbps

Скриншоты



mediainfo

General
Complete name : Lu4shee.v0.MHe.2014.D.WEB-DLRip.1.46GB.avi
Format : AVI
Format/Info : Audio Video Interleave
File size : 1.46 GiB
Duration : 1h 57mn
Overall bit rate : 1 777 Kbps
Writing application : VirtualDubMod 1.5.10.3 | www.virtualdub-fr.org || (build 2550/release)
Writing library : VirtualDubMod build 2550/release
Video
ID : 0
Format : MPEG-4 Visual
Format profile : Advanced [email protected]
Format settings, BVOP : 2
Format settings, QPel : No
Format settings, GMC : No warppoints
Format settings, Matrix : Default (MPEG)
Codec ID : XVID
Codec ID/Hint : XviD
Duration : 1h 57mn
Bit rate : 1 384 Kbps
Width : 720 pixels
Height : 304 pixels
Display aspect ratio : 2.35:1
Frame rate : 24.000 fps
Color space : YUV
Chroma subsampling : 4:2:0
Bit depth : 8 bits
Scan type : Progressive
Compression mode : Lossy
Bits/(Pixel*Frame) : 0.263
Stream size : 1.14 GiB (78%)
Writing library : XviD 1.2.1 (UTC 2008-12-04)
Audio
ID : 1
Format : AC-3
Format/Info : Audio Coding 3
Mode extension : CM (complete main)
Format settings, Endianness : Big
Codec ID : 2000
Duration : 1h 57mn
Bit rate mode : Constant
Bit rate : 384 Kbps
Channel(s) : 6 channels
Channel positions : Front: L C R, Side: L R, LFE
Sampling rate : 48.0 KHz
Bit depth : 16 bits
Compression mode : Lossy
Stream size : 323 MiB (22%)
Alignment : Split accross interleaves
Interleave, duration : 42 ms (1.00 video frame)
Interleave, preload duration : 500 ms

Создавать темы 04-Янв-2015 15:58

[Профиль]  [ЛС] 

sunny32

Стаж: 4 года 2 месяца

Сообщений: 52

Симпатии: 8

Отличный сюжет фильма, спасибо за релиз.

Создавать темы 21-Июн-2015 18:02

[Профиль]  [ЛС] 

zhozef

Стаж: 5 лет 11 месяцев

Сообщений: 35

Симпатии: 6

Признаюсь честно, но к своему стыду, я не читал ни одной книги Николаса Спаркса, единогласно признаваемого гениальнейшим беллетристом современности. Зато посмотрел практически все их экранизации- и «Счастливчик», и «Дорогой Джон», и «Тихая гавань», и «Спеши любить», и, естественно, «Дневник памяти», умудрившиеся совместными усилиями заработать в мировом прокате более восьмисот миллионов долларов. И «Лучшее во мне», один из последних романов Спаркса, увидевший свет в 2011 году и ставший девятым фильмом по его книгам, я пропустить просто не мог…
Доусон и Аманда были когда-то самой красивой парой тинэйджеров в округе. Трагическая случайность разлучила их на долгие двадцать лет, посеяв длинные корни боли в душах обоих. Однако судьба даёт им шанс вырвать эти корни, простив друг друга, когда они снова встречаются для похорон своего бывшего наставника. И Доусуну с Амандой предстоит провести вместе несколько лучших дней в их жизни…
Если вы, как и я смотрели все предыдущие экранизации книг Спаркса, вы не сможете не констатировать, что «Лучшее во мне»- это некий симбиоз своих предшественников- от «Дневника памяти» он взял культ воды в виде романтических поцелуев под дождём и купания влюблённых в озере, от «Счастливчика»- криминальные нотки, от «Тихой гавани»-мистическую линию, от «Дорогого Джона»- роман избалованной богатой девчонки и «дворового» парня… На фоне этого, многие недоброжелатели обвинили творение Хоффмана в безликости и поверхностности сюжета, непрорисовке характеров героев… Позвольте не согласиться, друзья, мне кажется Хоффман справился со своей задачей идеально, и «Лучшее во мне» точно станет не самой стыдной экранизацией Спаркса. Режиссёр задает идеальный ритм, умело выверяя каждый фрагмент фильма и чередуя флешбеки из прошлого и настоящее, помогающий зрителю с помощью этих нехитрых трюков со временем понять истинный трагизм взаимоотношений Аманды и Доусона. Оттого и двухчасовой хронометраж зритель переносит без лишнего напряга, переживая за взаимоотношения современных Ромео и Джульетты. А открыточные виды, на фоне которых они развиваются под великолепный саундтрек Аарона Цигмана заставляют убедиться, что Хоффман вполне оправдал выданный ему Спарксом кредит доверия.
Вердикт- хотя «Лучшее во мне» вряд ли ждут лавры «Дневника памяти», собравшего в 2004 году громкие кинематографические призы, это не самая худшая из экранизаций книг Спаркса- романтичный, ровно ни на что не претендующий фильм, оставляющий хоть и излишне приторное, но приятно сладкое послевкусие. А такие фильмы в наш жестокий век, несомненно, нужны.

Создавать темы 29-Июн-2015 08:58

[Профиль]  [ЛС] 

ilya ganyushin

Стаж: 5 лет 10 месяцев

Сообщений: 19

Симпатии: 2

дайте скорости плиз

Создавать темы 27-Янв-2016 07:47

[Профиль]  [ЛС] 

trojan

Стаж: 4 года 11 месяцев

Сообщений: 35

Симпатии: 2

Встаньте на раздачу, пожалуйста!

Создавать темы 25-Июл-2016 15:44

[Профиль]  [ЛС] 
Показать сообщения:    
Ответить на тему

Текущее время: 15-Дек 21:09

Часовой пояс: UTC + 5



Вы не можете начинать темы
Вы не можете отвечать на сообщения
Вы не можете редактировать свои сообщения
Вы не можете удалять свои сообщения
Вы не можете голосовать в опросах
Вы не можете прикреплять файлы к сообщениям
Вы не можете скачивать файлы