Мой маленький пони: Девочки из Эквестрии - Радужный рок / My Little Pony: Equestria Girls - Rainbow Rocks (Джэйсон Тиссен / Jayson Thiessen, Иши Руделл / Ishi Rudell) [2014, Приключения, семейный, фэнтези, BDRip] VO (Kidzone) + Dub (Плюсплюс)

Ответить на тему
 

yarik ®

Стаж: 4 года 7 месяцев

Сообщений: 225

Симпатии: 123

Мой маленький пони: Девочки из Эквестрии - Радужный рок
My Little Pony: Equestria Girls - Rainbow Rocks
Страна: США, Канада
Жанр: Приключения, комедия, семейный, фэнтези
Продолжительность: 01:13:20
Год выпуска: 2014
Перевод 1: Профессиональный одноголосый (телеканал Kidzone)
Перевод 2: Профессиональный дублированный (телеканал Плюсплюс) (украинский)
Русские субтитры: нет
Режиссёр: Джэйсон Тиссен / Jayson Thiessen, Иши Руделл / Ishi Rudell
Роли озвучивали: Тара Стронг, Эшли Болл, Андреа Либман, Табита Сен-Жермен, Кэти Уэслак, Кэтлин Барр и другие.
Описание: В школе Кантерлот Хай состоится музыкальное представление, в котором решают поучаствовать Рэйнбоу Дэш, Эпплджек, Пинки Пай, Рэрити и Флаттершай со своей новой группой - "The Rainbooms". Но когда на сцене появляется новая группа девочек с броским названием "The Dazzlings", всё очень быстро превращается из дружеского состязания в настоящую Битву Групп. В то время как между противниками нарастает напряжение, исправившаяся Сансет Шиммер узнаёт, что девочки из группы "The Dazzlings" вовсе не так просты, как могут показаться, и преследуют цели куда более зловещие, чем завоевание титула Лучшей Группы Кантерлот Хай. "The Rainbooms" обращаются за помощью к Принцессе Твайлайт, чтобы та вернулась в их мир и помогла сотворить музыкальное контр-заклинание, способное помочь им в битве, которая определит дальнейшую судьбу всей школы.
 
Качество: BDRip
Формат: AVI
Видео: XviD, 720x400 (16:9), 23.976 fps, ~1990 kbps
Аудио 1 Rus: AC3 48 kHz, 2 ch, 192 kbps (телеканал Kidzone)
Аудио 2 Ukr: AC3 48 kHz, 2 ch, 192 kbps (телеканал Плюсплюс)
Аудио 3 Eng: AC3 48 kHz, 6 ch, 448 kbps (оригинальный звук)

Скриншоты





Подробные технические данные

Общее
Полное имя                               : C:\Video\mlp.eg.rainbow.rocks.2014.bdrip.tv.avi
Формат                                   : AVI
Формат/Информация                        : Audio Video Interleave
Размер файла                             : 1,46 Гбайт
Продолжительность                        : 1 ч. 13 м.
Общий поток                              : 2841 Кбит/сек
Программа кодирования                    : VirtualDubMod 1.5.10.2 (build 2540/release)
Библиотека кодирования                   : VirtualDubMod build 2540/release
Видео
Идентификатор                            : 0
Формат                                   : MPEG-4 Visual
Профиль формата                          : Advanced [email protected]
Параметр BVOP формата                    : 1
Параметр QPel формата                    : Нет
Параметр GMC формата                     : Без точки перехода
Параметр матрицы формата                 : Выборочная
Идентификатор кодека                     : XVID
Идентификатор кодека/Подсказка           : XviD
Продолжительность                        : 1 ч. 13 м.
Битрейт                                  : 1990 Кбит/сек
Ширина                                   : 720 пикселей
Высота                                   : 400 пикселей
Соотношение сторон                       : 16:9
Частота кадров                           : 23,976 кадра/сек
Цветовое пространство                    : YUV
Субдискретизация насыщенности            : 4:2:0
Битовая глубина                          : 8 бит
Тип развёртки                            : Прогрессивная
Метод сжатия                             : С потерями
Бит/(Пиксели*Кадры)                      : 0.288
Размер потока                            : 1,02 Гбайт (70%)
Библиотека кодирования                   : XviD 64
Аудио #1
Идентификатор                            : 1
Формат                                   : AC-3
Формат/Информация                        : Audio Coding 3
Расширение режима                        : CM (complete main)
Параметр Endianness формата              : Big
Идентификатор кодека                     : 2000
Продолжительность                        : 1 ч. 13 м.
Вид битрейта                             : Постоянный
Битрейт                                  : 192 Кбит/сек
Каналы                                   : 2 канала
Расположение каналов                     : Front: L R
Частота                                  : 48,0 КГц
Битовая глубина                          : 16 бит
Метод сжатия                             : С потерями
Размер потока                            : 101 Мбайт (7%)
Выравнивание                             : Разделение по промежуткам
Продолжительность промежутка             : 42  мс. (1,00 видеокадр)
Время предзагрузки промежутка            : 500  мс.
Аудио #2
Идентификатор                            : 2
Формат                                   : AC-3
Формат/Информация                        : Audio Coding 3
Расширение режима                        : CM (complete main)
Параметр Endianness формата              : Big
Идентификатор кодека                     : 2000
Продолжительность                        : 1 ч. 13 м.
Вид битрейта                             : Постоянный
Битрейт                                  : 192 Кбит/сек
Каналы                                   : 2 канала
Расположение каналов                     : Front: L R
Частота                                  : 48,0 КГц
Битовая глубина                          : 16 бит
Метод сжатия                             : С потерями
Размер потока                            : 101 Мбайт (7%)
Выравнивание                             : Разделение по промежуткам
Продолжительность промежутка             : 42  мс. (1,00 видеокадр)
Время предзагрузки промежутка            : 500  мс.
Аудио #3
Идентификатор                            : 3
Формат                                   : AC-3
Формат/Информация                        : Audio Coding 3
Расширение режима                        : CM (complete main)
Параметр Endianness формата              : Big
Идентификатор кодека                     : 2000
Продолжительность                        : 1 ч. 13 м.
Вид битрейта                             : Постоянный
Битрейт                                  : 448 Кбит/сек
Каналы                                   : 6 каналов
Расположение каналов                     : Front: L C R, Side: L R, LFE
Частота                                  : 48,0 КГц
Битовая глубина                          : 16 бит
Метод сжатия                             : С потерями
Размер потока                            : 235 Мбайт (16%)
Выравнивание                             : Разделение по промежуткам
Продолжительность промежутка             : 42  мс. (1,00 видеокадр)
Время предзагрузки промежутка            : 500  мс.

Мультфильм является продолжением "Мой маленький пони: Девочки из Эквестрии"
Скачать можно тут
А также продолжением четвёртого сезона
Скачать можно тут


Последний раз редактировалось: yarik (2015-01-05 20:23), всего редактировалось 2 раз(а)

Создавать темы 05-Янв-2015 02:20

[Профиль]  [ЛС] 

yarik ®

Стаж: 4 года 7 месяцев

Сообщений: 225

Симпатии: 123

Оригинальная раздача с Рутрекера: http://rutracker.org/forum/viewtopic.php?t=4892117

Создавать темы 05-Янв-2015 02:31

[Профиль]  [ЛС] 

Tango4

Стаж: 5 лет 8 месяцев

Сообщений: 80

Симпатии: 9

Поняши, дайте скорости!

Создавать темы 25-Янв-2015 19:33

[Профиль]  [ЛС] 

yarik ®

Стаж: 4 года 7 месяцев

Сообщений: 225

Симпатии: 123

914470Поняши, дайте скорости!

Создавать темы 25-Янв-2015 20:17

[Профиль]  [ЛС] 

Tango4

Стаж: 5 лет 8 месяцев

Сообщений: 80

Симпатии: 9

Каждый раз, когда скорость падает, где-то грустит Рэйнбоу Дэш.

Создавать темы 25-Янв-2015 21:48

[Профиль]  [ЛС] 

yarik ®

Стаж: 4 года 7 месяцев

Сообщений: 225

Симпатии: 123

Каждый раз, когда кто-то просит скорость, где-то грустит Пинки Пай.

Создавать темы 26-Янв-2015 12:44

[Профиль]  [ЛС] 

Tango4

Стаж: 5 лет 8 месяцев

Сообщений: 80

Симпатии: 9



Озвучка одноголосая.

Создавать темы 26-Янв-2015 13:50

[Профиль]  [ЛС] 

yarik ®

Стаж: 4 года 7 месяцев

Сообщений: 225

Симпатии: 123

Tango4, пока неизвестно когда будет озвучка от ракосели, да и будет ли она вообще.

Создавать темы 26-Янв-2015 23:09

[Профиль]  [ЛС] 

Tango4

Стаж: 5 лет 8 месяцев

Сообщений: 80

Симпатии: 9


Шедеврально! Спасибо!!

Создавать темы 27-Янв-2015 20:48

[Профиль]  [ЛС] 

Tango4

Стаж: 5 лет 8 месяцев

Сообщений: 80

Симпатии: 9

Секс, наркотики, рок. Не хватает только старой доброй расчленёнки. Но в конце концов это же детский мульт.

Создавать темы 10-Фев-2015 19:11

[Профиль]  [ЛС] 

yarik ®

Стаж: 4 года 7 месяцев

Сообщений: 225

Симпатии: 123

Не хватает только старой доброй расчленёнки
Это точно!

Создавать темы 11-Фев-2015 12:01

[Профиль]  [ЛС] 

limur

Стаж: 5 лет 8 месяцев

Сообщений: 102

Симпатии: 5

Yarik ты бомба!

Создавать темы 13-Июн-2015 22:08

[Профиль]  [ЛС] 

Tango4

Стаж: 5 лет 8 месяцев

Сообщений: 80

Симпатии: 9

yarik, выкладывай дружбоигры!

Создавать темы 04-Окт-2015 11:07

[Профиль]  [ЛС] 

RocknRollа

Стаж: 3 года 7 месяцев

Сообщений: 38

Симпатии: 6

918721Но в конце концов это же детский мульт.
Я бы ещё добавил "для девочек" Как то по зомбоящику крутили эту хунту, решил всё таки глянуть и понял что мой мозг способен выдержать лишь аниме...

Создавать темы 30-Ноя-2015 19:16

[Профиль]  [ЛС] 
Показать сообщения:    
Ответить на тему

Текущее время: 23-Сен 14:18

Часовой пояс: UTC + 5



Вы не можете начинать темы
Вы не можете отвечать на сообщения
Вы не можете редактировать свои сообщения
Вы не можете удалять свои сообщения
Вы не можете голосовать в опросах
Вы не можете прикреплять файлы к сообщениям
Вы не можете скачивать файлы