Русский характер (Александр Якимчук) [2014 г., драма, криминал, SATRip]

Ответить на тему
 

Старый Дядька ®

Стаж: 4 года 11 месяцев

Сообщений: 566

Симпатии: 400

Русский характер-- Год выпуска: 2014
Страна: Россия
Жанр: драма, криминал
Продолжительность: 1:27:43
Перевод: не тебуется-Режиссер: Александр Якимчук-В ролях: Александр Фисенко, Сергей Никоненко, Евгений Бакалов, Наталья Мартынова, Александра Никифорова, Любовь Завадская, Кирилл Полухин, Егор Баринов, Глеб Степан Каллистов, Витас Эйзенах-Описание: 2013-й год. Украина. Военный моряк Максим Фадеев приезжает из Санкт-Петербурга в Крым, получив телеграмму о смерти деда. Здесь, в Крыму, прошло детство Максима. Отсюда он уехал поступать в Суворовское училище. Здесь живут его друзья и близкие…
Максим узнает, что расположенный на берегу моря поселок терроризирует банда некоего Волощука, жестокого и беспринципного наемника, финансирует которого олигарх Юрий Гаджало. Олигарх хочет выжить из поселка местных жителей, снести его и построить на этом месте дорогой отель с ресторанами и причалом для катеров. Узнав об этом, Фадеев встает на защиту жителей поселка, что приводит к конфликту с местной милицией, которая закрывает глаза на бесчинства бандитов и даже покрывает их. Вскоре местные жители, которые были запуганы и не сопротивлялись бесчинствам, начинают помогать Фадееву в его борьбе с бандой.-Премьера (РФ): 28 декабря 2014
Возраст: зрителям, достигшим 16 лет-Рейтинг:
 -Качество: SATRip
Формат: AVI
Видео кодек: DivX 5
Аудио кодек: MP3-Видео: 2100 Кбит/сек, 720х448 пикселей (16:10), 25,000 кадров/сек
Аудио: 128 Кбит/сек, 2 канала, 48,0 КГц-

Mediainfo:

Общее
Полное имя : F:\Фильмы\Русский характер.2014.O.SatRip.(1.37).avi
Формат : AVI
Формат/Информация : Audio Video Interleave
Размер файла : 1,37 Гбайт
Продолжительность : 1 ч. 27 м.
Общий поток : 2242 Кбит/сек
Видео
Идентификатор : 0
Формат : MPEG-4 Visual
Параметр BVOP формата : 1
Параметр QPel формата : Нет
Параметр GMC формата : Без точки перехода
Параметр матрицы формата : Default (H.263)
Идентификатор кодека : DX50
Идентификатор кодека/Подсказка : DivX 5
Продолжительность : 1 ч. 27 м.
Битрейт : 2100 Кбит/сек
Ширина : 720 пикселей
Высота : 448 пикселей
Соотношение сторон : 16:10
Частота кадров : 25,000 кадров/сек
Цветовое пространство : YUV
Субдискретизация насыщенности : 4:2:0
Битовая глубина : 8 бит
Тип развёртки : Прогрессивная
Метод сжатия : С потерями
Бит/(Пиксели*Кадры) : 0.260
Размер потока : 1,29 Гбайт (94%)
Библиотека кодирования : DivX 6.8.5 (UTC 2009-08-20)
Аудио
Идентификатор : 1
Формат : MPEG Audio
Версия формата : Version 1
Профиль формата : Layer 3
Режим : Joint stereo
Идентификатор кодека : 55
Идентификатор кодека/Подсказка : MP3
Продолжительность : 1 ч. 27 м.
Вид битрейта : Постоянный
Битрейт : 128 Кбит/сек
Каналы : 2 канала
Частота : 48,0 КГц
Метод сжатия : С потерями
Размер потока : 80,3 Мбайт (6%)
Выравнивание : Соединение по промежуткам
Продолжительность промежутка : 24 мс. (0,60 видеокадр)

Скриншоты





Создавать темы 06-Янв-2015 10:29

[Профиль]  [ЛС] 

-OdilmaX-

Стаж: 2 года 5 месяцев

Сообщений: 425

Симпатии: 854

!!

Создавать темы 15-Апр-2015 20:47

[Профиль]  [ЛС] 

-OdilmaX-

Стаж: 2 года 5 месяцев

Сообщений: 425

Симпатии: 854

Полного источника не было: 8 дня

Создавать темы 15-Апр-2015 20:48

[Профиль]  [ЛС] 
Показать сообщения:    
Ответить на тему

Текущее время: 19-Авг 10:16

Часовой пояс: UTC + 5



Вы не можете начинать темы
Вы не можете отвечать на сообщения
Вы не можете редактировать свои сообщения
Вы не можете удалять свои сообщения
Вы не можете голосовать в опросах
Вы не можете прикреплять файлы к сообщениям
Вы не можете скачивать файлы