Зверинец / Animal House (Джон Лэндис) [1978 г., мелодрама, комедия, HDRip] MVO + AVO (Михалев)

Ответить на тему
 

lotto ®

Стаж: 7 лет 11 месяцев

Сообщений: 221

Симпатии: 409

Зверинец / Animal House
«We got to do something...You know what we are gonna do ? Toga party !»
-- Год выпуска: 1978
Страна: США
Жанр: мелодрама, комедия
Продолжительность: 01:48:50
Перевод: Профессиональный (многоголосый, закадровый)--Режиссер: Джон Лэндис
В ролях: Джон Белуши, Тим Мэтисон, Джон Вернон, Верна Блум, Том Халс, Чезаре Данова, Питер Ригерт, Мэри Луиз Уэллер, Стефен Ферст, James Daughton, Брюс МакГилл, Марк Меткалф--Описание: Ребята одного из колледжей разделились на два братства. В одно из них входят шумные, веселые, дружные студенты, доставляющие много хлопот преподавателям. Другое состоит из заносчивых и высокомерных детей состоятельных семейств, настоящих снобов…--Доп. информация: При бюджете в 3 миллиона долларов общие сборы фильма только в Америке составили более 140 миллионов долларов.-- --Качество: HDRip
Формат: AVI
Видео кодек: XviD
Аудио кодек: AC3
Видео: 720x384, 1522 kbps, 23.976 fps
Аудио 1: 48 kHz 2 ch, 192.00 kbps (русский, многоголосый)
Аудио 2: 48 kHz 2 ch, 192.00 kbps (русский, авторский одноголосый) А. Михалев

MediaInfo

General
Complete name : /Animal House.1978.HDRip.avi
Format : AVI
Format/Info : Audio Video Interleave
File size : 1.46 GiB
Duration : 1h 48mn
Overall bit rate : 1 919 Kbps
Movie name : Animal House
Recorded date : 1978
Writing application : VirtualDubMod 1.5.10.3 | www.virtualdub-fr.org || (build 2550/release)
Writing library : VirtualDubMod build 2550/release
Copyright : tas-ix.net
Video
ID : 0
Format : MPEG-4 Visual
Format profile : Advanced [email protected]
Format settings, BVOP : 1
Format settings, QPel : No
Format settings, GMC : No warppoints
Format settings, Matrix : Custom
Codec ID : XVID
Codec ID/Hint : XviD
Duration : 1h 48mn
Bit rate : 1 522 Kbps
Width : 720 pixels
Height : 384 pixels
Display aspect ratio : 1.85:1
Frame rate : 23.976 fps
Color space : YUV
Chroma subsampling : 4:2:0
Bit depth : 8 bits
Scan type : Progressive
Compression mode : Lossy
Bits/(Pixel*Frame) : 0.230
Stream size : 1.16 GiB (79%)
Writing library : XviD 1.2.1 (UTC 2008-12-04)
Audio #1
ID : 1
Format : AC-3
Format/Info : Audio Coding 3
Mode extension : CM (complete main)
Format settings, Endianness : Big
Codec ID : 2000
Duration : 1h 48mn
Bit rate mode : Constant
Bit rate : 192 Kbps
Channel(s) : 2 channels
Channel positions : Front: L R
Sampling rate : 48.0 KHz
Bit depth : 16 bits
Compression mode : Lossy
Delay relative to video : 170ms
Stream size : 149 MiB (10%)
Alignment : Split accross interleaves
Interleave, duration : 42 ms (1.00 video frame)
Interleave, preload duration : 500 ms
Audio #2
ID : 2
Format : AC-3
Format/Info : Audio Coding 3
Mode extension : CM (complete main)
Format settings, Endianness : Big
Codec ID : 2000
Duration : 1h 48mn
Bit rate mode : Constant
Bit rate : 192 Kbps
Channel(s) : 2 channels
Channel positions : Front: L R
Sampling rate : 48.0 KHz
Bit depth : 16 bits
Compression mode : Lossy
Delay relative to video : 1s 0ms
Stream size : 149 MiB (10%)
Alignment : Split accross interleaves
Interleave, duration : 42 ms (1.00 video frame)
Interleave, preload duration : 500 ms

Скриншоты






Создавать темы 06-Янв-2015 13:55

[Профиль]  [ЛС] 

opium-gangster

Стаж: 4 года 8 месяцев

Сообщений: 78

Симпатии: 8

lotto, спасибо большое. Фильм - ЧУМА

Создавать темы 22-Фев-2015 12:22

[Профиль]  [ЛС] 
Показать сообщения:    
Ответить на тему

Текущее время: 17-Дек 18:54

Часовой пояс: UTC + 5



Вы не можете начинать темы
Вы не можете отвечать на сообщения
Вы не можете редактировать свои сообщения
Вы не можете удалять свои сообщения
Вы не можете голосовать в опросах
Вы не можете прикреплять файлы к сообщениям
Вы не можете скачивать файлы