(Rock/Pop Rock) Smokie - Original Album Classics - 5CD Box Set Sony Music - 2009, FLAC (image + .cue), lossless

Ответить на тему
 

Massageth ®

Стаж: 6 лет 10 месяцев

Сообщений: 116

Симпатии: 15

Smokie-Original Album Classics (1975 - 1978)-5CD Box Set Sony Music - 2009- -Страна: UK | Жанр: Rock/Pop Rock | Год выпуска: 2009 | Лейбл: (p) & © 2009 Sony Music Entertainment Sony BMG / Legacy Recordings / Ariola Records-Originally Released: (p) 1975, 1976, 1977, 1978 Chinnichap Records Ltd. licensed to Sony Music Entertainment Germany GmbH | Label Code: LC02361-Формат: FLAC (image + .cue) | Битрейт аудио: lossless | Продолжительность: 03:14:21-Smokie (первоначально англ. Smokey, созвучно со словом англ. smoky, дымный, копчёный, прокуренный) — известная английская группа, основанная в 1965 году в Брэдфорде, графство Йоркшир, получившая большую известность в Европе в 1970-х годах. Весьма продолжительное время ансамбль, тогда Kindness (рус. Доброта), не решался давать большие концерты, так как музыканты были выходцами из рабочих кварталов, и успешно выступали только в пабах и ночных клубах в окрестностях Брэдфорда. Попытки найти контакты с звукозаписывающими компаниями не увенчались успехом. В 1974 году в небольшом лондонском клубе «Хэтчет» они попадают в поле зрения авторской паре Ники Чинн — Майк Чэпмен, уже успешно работавших с Сьюзи Кватро, группами Sweet и Mud. В начале 1975 года Чинн и Чэпмен объявили о «зарождении» нового ансамбля «Smokey», который дебютировал с альбомом Pass It Around. Состав ансамбля долгое время оставался постоянным — вокалист Крис Норман, гитарист Алэн Силсон, ударник Пит Спенсер и басист Терри Аттли. Но в 1986 году Крис Норман начал сольную карьеру, а группа продолжила с новым вокалистом Аланом Бартоном, часто используя старые и проверенные песни. Примерно в это же время в составе появляются клавишник Мартин Буллард и ударник Стив Пиннелл. Однако в 1995 году Алан Бартон погибает в автокатастрофе в турне по Германии. Его место занимает старый друг группы Майк Крафт.-

Треклист

-

1975 - Changing All The Time


-Продолжительность: 00:34:01
-01. Don't Play Your Rock 'N' Roll To Me - 03:18
02. If You Think You Know How To Love Me - 03:24
03. It's Natural - 02:38
04. Give It To Me - 04:04
05. We're Flyin' High - 03:52
06. Changing All The Time - 03:22
07. Julia - 03:01
08. Take Me In - 03:53
09. Umbrella Day - 03:44
10. Back To Bradford - 02:41

Отчёт Exact Audio Copy


Exact Audio Copy V1.0 beta 1 from 15. November 2010
EAC extraction logfile from 29. April 2011, 22:17
Smokie / Changing All The Time
Used drive : HL-DT-STDVDRAM GSA-H60N Adapter: 2 ID: 0
Read mode : Secure
Utilize accurate stream : Yes
Defeat audio cache : Yes
Make use of C2 pointers : No
Read offset correction : 667
Overread into Lead-In and Lead-Out : No
Fill up missing offset samples with silence : Yes
Delete leading and trailing silent blocks : No
Null samples used in CRC calculations : Yes
Used interface : Native Win32 interface for Win NT & 2000
Used output format : Internal WAV Routines
Sample format : 44.100 Hz; 16 Bit; Stereo
TOC of the extracted CD
Track | Start | Length | Start sector | End sector
---------------------------------------------------------
1 | 0:00.00 | 3:19.22 | 0 | 14946
2 | 3:19.22 | 3:27.50 | 14947 | 30521
3 | 6:46.72 | 2:39.65 | 30522 | 42511
4 | 9:26.62 | 4:06.38 | 42512 | 60999
5 | 13:33.25 | 3:55.25 | 61000 | 78649
6 | 17:28.50 | 3:23.70 | 78650 | 93944
7 | 20:52.45 | 3:04.02 | 93945 | 107746
8 | 23:56.47 | 3:55.35 | 107747 | 125406
9 | 27:52.07 | 3:46.05 | 125407 | 142361
10 | 31:38.12 | 2:41.63 | 142362 | 154499
Range status and errors
Selected range
Filename C:\Documents and Settings\Администратор\Рабочий стол\Lossless Galaxy Rip by ALLexxess\2009 Smokie Original Album Classics (5CD Box Set Sony Music)\1975 Changing All The Time\Smokie - Changing All The Time.wav
Peak level 98.1 %
Extraction speed 0.4 X
Range quality 100.0 %
Test CRC 1794D789
Copy CRC 1794D789
Copy OK
No errors occurred
AccurateRip summary
Track 1 accurately ripped (confidence 3) [40B1C4D3]
Track 2 accurately ripped (confidence 3) [C310B50D]
Track 3 accurately ripped (confidence 3) [0678772D]
Track 4 accurately ripped (confidence 3) [EE66BA23]
Track 5 accurately ripped (confidence 3) [1E87C733]
Track 6 accurately ripped (confidence 3) [36AD0052]
Track 7 accurately ripped (confidence 3) [FD1701DB]
Track 8 accurately ripped (confidence 3) [218EBF68]
Track 9 accurately ripped (confidence 3) [CABCCF87]
Track 10 accurately ripped (confidence 3) [471E92CF]
All tracks accurately ripped
End of status report
==== Log checksum BF2F94C53F31F8B736F6E9743A31099BAF8D901F957C7A61513A3AFE076EF17A ====

1975 - Pass It Around


-Продолжительность: 00:44:02-
01. Pass It Around - (03:07)
02. Daydreamin' - (02:15)
03. Oh Well, Oh Well - (03:16)
04. My Woman - (03:20)
05. It Makes Me Money - (02:55)
06. Headspin - (03:30)
07. Goin' Tomorrow - (03:42)
08. I Do Declare - (03:44)
09. Don't Turn Out Your Light - (03:59)
10. Will You Love Me - (03:43)
11. A Day At The Mother-In-Law's - (02:50)
12. The Coldest Night - (04:14)
13. Shy Guy - (03:23)

Отчёт Exact Audio Copy


Exact Audio Copy V1.0 beta 1 from 15. November 2010
EAC extraction logfile from 29. April 2011, 21:45
Smokie / Pass It Around
Used drive : HL-DT-STDVDRAM GSA-H60N Adapter: 2 ID: 0
Read mode : Secure
Utilize accurate stream : Yes
Defeat audio cache : Yes
Make use of C2 pointers : No
Read offset correction : 667
Overread into Lead-In and Lead-Out : No
Fill up missing offset samples with silence : Yes
Delete leading and trailing silent blocks : No
Null samples used in CRC calculations : Yes
Used interface : Native Win32 interface for Win NT & 2000
Used output format : Internal WAV Routines
Sample format : 44.100 Hz; 16 Bit; Stereo
TOC of the extracted CD
Track | Start | Length | Start sector | End sector
---------------------------------------------------------
1 | 0:00.00 | 3:08.43 | 0 | 14142
2 | 3:08.43 | 2:17.27 | 14143 | 24444
3 | 5:25.70 | 3:17.63 | 24445 | 39282
4 | 8:43.58 | 3:22.55 | 39283 | 54487
5 | 12:06.38 | 2:57.45 | 54488 | 67807
6 | 15:04.08 | 3:32.10 | 67808 | 83717
7 | 18:36.18 | 3:45.20 | 83718 | 100612
8 | 22:21.38 | 3:47.00 | 100613 | 117637
9 | 26:08.38 | 4:01.40 | 117638 | 135752
10 | 30:10.03 | 3:46.07 | 135753 | 152709
11 | 33:56.10 | 2:51.68 | 152710 | 165602
12 | 36:48.03 | 4:16.50 | 165603 | 184852
13 | 41:04.53 | 3:23.60 | 184853 | 200137
Range status and errors
Selected range
Filename C:\Documents and Settings\Администратор\Рабочий стол\Lossless Galaxy Rip by ALLexxess\2009 Smokie Original Album Classics (5CD Box Set Sony Music)\1975 Pass It Around\Smokie - Pass It Around.wav
Peak level 99.9 %
Extraction speed 0.4 X
Range quality 99.9 %
Test CRC F2F41BE9
Copy CRC F2F41BE9
Copy OK
No errors occurred
AccurateRip summary
Track 1 accurately ripped (confidence 3) [6BBCB571]
Track 2 accurately ripped (confidence 3) [6F69CCBE]
Track 3 accurately ripped (confidence 3) [DA8E990A]
Track 4 accurately ripped (confidence 3) [8403CD0E]
Track 5 accurately ripped (confidence 3) [908FB48C]
Track 6 accurately ripped (confidence 3) [26CA703E]
Track 7 accurately ripped (confidence 3) [936A3096]
Track 8 accurately ripped (confidence 3) [F7B42826]
Track 9 accurately ripped (confidence 3) [60D9B55F]
Track 10 accurately ripped (confidence 3) [9C1FE988]
Track 11 accurately ripped (confidence 3) [9BBA5CFC]
Track 12 accurately ripped (confidence 3) [10FE8FA9]
Track 13 accurately ripped (confidence 3) [CF04E4F7]
All tracks accurately ripped
End of status report
==== Log checksum AC07D0C0632174D71004842A6A6D4382B2462EE6D2B80E9035DBE33D01B83BA8 ====

1976 - Midnight Cafe


-Продолжительность: 00:43:11
-01. Something's Been Making Me Blue - 03:00
02. Wild Wild Angels - 03:55
03. Poor Lady (Midnight Baby) - 04:41
04. When My Back Was Against The Wall - 03:34
05. Make Ya Boogie - 05:11
06. Stranger - 04:39
07. What Can I Do - 03:36
08. Little Lucy - 03:44
09. Going Home - 07:31
10. I'll Meet You At Midnight - 03:16

Отчёт Exact Audio Copy


Exact Audio Copy V1.0 beta 1 from 15. November 2010
EAC extraction logfile from 29. April 2011, 22:51
Smokie / Midnight Cafe
Used drive : HL-DT-STDVDRAM GSA-H60N Adapter: 2 ID: 0
Read mode : Secure
Utilize accurate stream : Yes
Defeat audio cache : Yes
Make use of C2 pointers : No
Read offset correction : 667
Overread into Lead-In and Lead-Out : No
Fill up missing offset samples with silence : Yes
Delete leading and trailing silent blocks : No
Null samples used in CRC calculations : Yes
Used interface : Native Win32 interface for Win NT & 2000
Used output format : Internal WAV Routines
Sample format : 44.100 Hz; 16 Bit; Stereo
TOC of the extracted CD
Track | Start | Length | Start sector | End sector
---------------------------------------------------------
1 | 0:00.00 | 3:01.55 | 0 | 13629
2 | 3:01.55 | 3:57.65 | 13630 | 31469
3 | 6:59.45 | 4:42.60 | 31470 | 52679
4 | 11:42.30 | 3:38.15 | 52680 | 69044
5 | 15:20.45 | 5:13.70 | 69045 | 92589
6 | 20:34.40 | 4:40.30 | 92590 | 113619
7 | 25:14.70 | 3:37.60 | 113620 | 129954
8 | 28:52.55 | 3:46.20 | 129955 | 146924
9 | 32:39.00 | 7:33.65 | 146925 | 180964
10 | 40:12.65 | 3:16.32 | 180965 | 195696
Range status and errors
Selected range
Filename C:\Documents and Settings\Администратор\Рабочий стол\Lossless Galaxy Rip by ALLexxess\2009 Smokie Original Album Classics (5CD Box Set Sony Music)\1976 Midnight Cafe\Smokie - Midnight Cafe.wav
Peak level 96.0 %
Extraction speed 0.4 X
Range quality 100.0 %
Test CRC 15A45838
Copy CRC 15A45838
Copy OK
No errors occurred
AccurateRip summary
Track 1 accurately ripped (confidence 3) [9F0FFF2B]
Track 2 accurately ripped (confidence 3) [FE164EF0]
Track 3 accurately ripped (confidence 3) [70EB3F3B]
Track 4 accurately ripped (confidence 3) [2B0F560F]
Track 5 accurately ripped (confidence 3) [22795E54]
Track 6 accurately ripped (confidence 3) [A2A56908]
Track 7 accurately ripped (confidence 3) [44FCC7B8]
Track 8 accurately ripped (confidence 3) [962C4A60]
Track 9 accurately ripped (confidence 3) [51E03FD3]
Track 10 accurately ripped (confidence 3) [6F0C274C]
All tracks accurately ripped
End of status report
==== Log checksum EC6D7916E1FCDB477C9A67D03FE144EAA8A0EC482C413E43D67E371A7A07D191 ====

1977 - Bright Lights & Back Alleys


-Продолжительность: 00:38:49
-01. It's Your Life - (03:34)
02. I Can't Stay Here Tonight - (04:07)
03. Sunshine Avenue - (03:09)
04. Think Of Me - (04:41)
05. In The Heat Of The Night - (04:47)
06. Needles And Pins - (02:44)
07. No One Could Ever Love You More - (02:30)
08. The Dancer - (03:51)
09. Baby It's You - (03:50)
10. Walk Right Back - (05:30)

Отчёт Exact Audio Copy


Exact Audio Copy V1.0 beta 1 from 15. November 2010
EAC extraction logfile from 30. April 2011, 10:27
Smokie / Bright Lights & Back Alleys
Used drive : HL-DT-STDVDRAM GSA-H60N Adapter: 2 ID: 0
Read mode : Secure
Utilize accurate stream : Yes
Defeat audio cache : Yes
Make use of C2 pointers : No
Read offset correction : 667
Overread into Lead-In and Lead-Out : No
Fill up missing offset samples with silence : Yes
Delete leading and trailing silent blocks : No
Null samples used in CRC calculations : Yes
Used interface : Native Win32 interface for Win NT & 2000
Used output format : Internal WAV Routines
Sample format : 44.100 Hz; 16 Bit; Stereo
TOC of the extracted CD
Track | Start | Length | Start sector | End sector
---------------------------------------------------------
1 | 0:00.00 | 3:36.37 | 0 | 16236
2 | 3:36.37 | 4:09.00 | 16237 | 34911
3 | 7:45.37 | 3:12.43 | 34912 | 49354
4 | 10:58.05 | 4:44.05 | 49355 | 70659
5 | 15:42.10 | 4:50.17 | 70660 | 92426
6 | 20:32.27 | 2:46.63 | 92427 | 104939
7 | 23:19.15 | 2:33.25 | 104940 | 116439
8 | 25:52.40 | 3:53.05 | 116440 | 133919
9 | 29:45.45 | 3:51.55 | 133920 | 151299
10 | 33:37.25 | 5:30.27 | 151300 | 176076
Range status and errors
Selected range
Filename C:\Documents and Settings\Администратор\Рабочий стол\Lossless Galaxy Rip by ALLexxess\2009 Smokie Original Album Classics (5CD Box Set Sony Music)\1977 Bright Lights & Back Alleys\Smokie - Bright Lights & Back Alleys.wav
Peak level 98.8 %
Extraction speed 0.7 X
Range quality 99.9 %
Test CRC 6C196005
Copy CRC 6C196005
Copy OK
No errors occurred
AccurateRip summary
Track 1 accurately ripped (confidence 3) [F636C4F6]
Track 2 accurately ripped (confidence 3) [03897214]
Track 3 accurately ripped (confidence 3) [38C9EBA5]
Track 4 accurately ripped (confidence 3) [F205207F]
Track 5 accurately ripped (confidence 3) [8329EA1D]
Track 6 accurately ripped (confidence 3) [0620876B]
Track 7 accurately ripped (confidence 3) [25D3EBDD]
Track 8 accurately ripped (confidence 3) [00662731]
Track 9 accurately ripped (confidence 3) [256D157C]
Track 10 accurately ripped (confidence 3) [1C59B8CB]
All tracks accurately ripped
End of status report
==== Log checksum 3D48245DF6441220E5E094CC5E19E47C1432BFA4CC828F0EDFBFD6504713FA9F ====

1978 - The Montreux Album


-Продолжительность: 00:34:16
-01. The Girl Can't Help It - (03:47)
02. Power Of Love - (01:55)
03. No More Letters - (03:27)
04. Mexican Girl - (03:58)
05. You Took Me By Surprise - (03:37)
06. Oh Carol - (03:39)
07. Liverpool Docks - (02:57)
08. Light Up My Life - (04:24)
09. Petesey's Song - (02:52)
10. For A Few Dollars More - (03:35)

Отчёт Exact Audio Copy


Exact Audio Copy V1.0 beta 1 from 15. November 2010
EAC extraction logfile from 30. April 2011, 11:12
Smokie / The Montreux Album
Used drive : HL-DT-STDVDRAM GSA-H60N Adapter: 2 ID: 0
Read mode : Secure
Utilize accurate stream : Yes
Defeat audio cache : Yes
Make use of C2 pointers : No
Read offset correction : 667
Overread into Lead-In and Lead-Out : No
Fill up missing offset samples with silence : Yes
Delete leading and trailing silent blocks : No
Null samples used in CRC calculations : Yes
Used interface : Native Win32 interface for Win NT & 2000
Used output format : Internal WAV Routines
Sample format : 44.100 Hz; 16 Bit; Stereo
TOC of the extracted CD
Track | Start | Length | Start sector | End sector
---------------------------------------------------------
1 | 0:00.00 | 3:49.72 | 0 | 17246
2 | 3:49.72 | 1:57.28 | 17247 | 26049
3 | 5:47.25 | 3:31.00 | 26050 | 41874
4 | 9:18.25 | 4:00.27 | 41875 | 59901
5 | 13:18.52 | 3:38.68 | 59902 | 76319
6 | 16:57.45 | 3:40.50 | 76320 | 92869
7 | 20:38.20 | 2:58.52 | 92870 | 106271
8 | 23:36.72 | 4:25.58 | 106272 | 126204
9 | 28:02.55 | 2:53.45 | 126205 | 139224
10 | 30:56.25 | 3:35.25 | 139225 | 155374
Range status and errors
Selected range
Filename C:\Documents and Settings\Администратор\Рабочий стол\Lossless Galaxy Rip by ALLexxess\2009 Smokie Original Album Classics (5CD Box Set Sony Music)\1978 The Montreux Album\Smokie - The Montreux Album.wav
Peak level 96.6 %
Extraction speed 0.5 X
Range quality 100.0 %
Test CRC 907E2C93
Copy CRC 907E2C93
Copy OK
No errors occurred
AccurateRip summary
Track 1 accurately ripped (confidence 3) [DC80A411]
Track 2 accurately ripped (confidence 3) [E59B4CDF]
Track 3 accurately ripped (confidence 3) [D61F3085]
Track 4 accurately ripped (confidence 3) [EB923FF5]
Track 5 accurately ripped (confidence 3) [F2CBE252]
Track 6 accurately ripped (confidence 3) [FB032CA2]
Track 7 accurately ripped (confidence 3) [25B610AB]
Track 8 accurately ripped (confidence 3) [71F2DD1C]
Track 9 accurately ripped (confidence 3) [C03EEE45]
Track 10 accurately ripped (confidence 3) [463FE692]
All tracks accurately ripped
End of status report
==== Log checksum FDB5B273412B22FA8A71B622AD08E8E6FE9DCC36FC6D857A928BDA2ECF59DA06 ====

Состав группы

1974 — 1975
• Крис Норман (англ. Chris Norman) — вокал, гитара
• Алэн Силсон (англ. Alan Silson) — гитара, вокал
• Терри Аттли (англ. Terry Uttley) — бас-гитара, вокал
• Рон Келли (англ. Ron Kelly) — ударные
1975 — 1986
• Крис Норман — вокал, гитара
• Алэн Силсон — гитара, вокал
• Терри Аттли — бас-гитара, вокал
• Пит Спенсер (англ. Pete Spencer) — ударные
1986 — 1995
• Алан Бартон (англ. Alan Barton) — вокал, гитара
• Алэн Силсон — гитара, вокал
• Терри Аттли — бас-гитара, вокал
• Стив Пиннелл (англ. ) — ударные
• Мартин Буллард (англ. Martin Bullard) — синтезатор (клавиши)
1995 — 1996
• Майк Крафт (англ. Mike Craft) — вокал, гитара
• Алэн Силсон — гитара, вокал
• Терри Аттли — бас-гитара, вокал
• Стив Пиннелл — ударные
• Мартин Буллард — клавишные
1996 — настоящее
• Майк Крафт — лидер вокал, гитара
• Мик МакКоннелл (англ. Mick McConnell) — гитара, вокал
• Терри Аттли — бас-гитара, вокал
• Стив Пиннелл — ударные
• Мартин Буллард — клавишные

Дискография


Альбомы с Крисом Норманом
Pass It Around (1975)
Changing All The Time (1975)
Midnight Cafe (1976)
Bright Lights & Back Alleys (1977)
The Montreux Album (1978)
The Other Side Of The Road (1979)
Solid Ground (1981)
Strangers In Paradise (1982)
Midnight Delight (1982)
Сборники:
Greatest Hits (1977)
Smokie Forever (1990)
Smokie Forever — I’ts Medley Time (1992)
The Collections B-sides (1994)
Smokie Live — The Concert-1978 (1998)
Best Of the Rock Songs And Ballads (2000)
The 25th Anniversary Album (2000)
Альбомы с Аланом Бартоном
All Fired Up (1988)
Boulevard Of Broken Dreams (1989)
Whose Are These Boots? (1990)
Chasing Shadows (1992)
Burning Ambition (1993)
Celebration (1994)
Сборники:
Greatest Hits Live (1989)
The Best Of (1990)
The Complete Smokie Collections (1995)
Альбомы с Майком Крафтом
From Smokie With Love (1995)
The World And Elsewhere (1995)
Light A Candle — The Christmas Album (1996)
Wild Horses — The Nashville Album (1998)
Uncovered (2000)
Uncovered Too (2001)
On The Wire (2004)
From The Heart (2006)
Eclipse (2008)
It’s Country Time (2009)
Take A Minute (2010)
Концертники:
Smokie Live (1998)
Live at Circus, Stockholm (DVD) (2008)
Live at Rival (DVD) (2008)
Live in South Africa (DVD) (2009)

№ Catalog


Barcode: 886975643028
Catalog Box: 88697564302
Catalog CDs:
Pass It Around - 88697564302CD1
Changing All The Time - 88697564302CD2
Midnight Cafe - 88697564302CD3
Bright Lights & Back Alleys - 88697564302CD4
The Montreux Album - 88697564302CD5

Создавать темы 07-Янв-2015 20:54

[Профиль]  [ЛС] 
Показать сообщения:    
Ответить на тему

Текущее время: 23-Сен 16:11

Часовой пояс: UTC + 5



Вы не можете начинать темы
Вы не можете отвечать на сообщения
Вы не можете редактировать свои сообщения
Вы не можете удалять свои сообщения
Вы не можете голосовать в опросах
Вы не можете прикреплять файлы к сообщениям
Вы не можете скачивать файлы