Жить (Юрий Быков) [2010 г., драма, DVDRip-AVC]

Ответить на тему
 

lotto ®

Стаж: 7 лет 7 месяцев

Сообщений: 221

Симпатии: 409

Жить
-- Год выпуска: 2010
Страна: Россия
Жанр: драма
Продолжительность: 01:12:00
-
Режиссер: Юрий Быков
В ролях:Денис Шведов, Владислав Толдыков, Константин Стрельников, Алексей Комашко, Сергей Жарков, Сергей Сосновский, Сергей Беляев
-
Описание: Дикие места. Трое преследуют пожилого охотника и молодого парня. Один — проводник, второй — боец. Незнакомые, чуждые друг другу люди должны вместе выжить и добраться до города. Какова цена жизни? На этот вопрос каждый ответит по-своему.
-
 
-
Качество: DVDRip-AVC
Формат: MKV
Видео кодек: H.264
Аудио кодек: AC3
Видео: [email protected]*544, 2461 kbps, 25 fps
Аудио:48.0 kHz, 2ch, 192 kbps

MediaInfo

General
Unique ID : 245864420929937626010248426923265502049 (0xB8F7C3DA80BD3E5F8CBAE700900A2B61)
Complete name : \Жить.2010.DVDRip-AVC.mkv
Format : Matroska
Format version : Version 4 / Version 2
File size : 1.36 GiB
Duration : 1h 12mn
Overall bit rate : 2 707 Kbps
Movie name : Жить
Encoded date : UTC 2015-01-08 06:18:51
Writing application : mkvmerge v6.1.0 ('Old Devil') built on Mar 4 2013 09:10:42
Writing library : libebml v1.3.0 + libmatroska v1.4.0
Attachements : cover.png
ARTIST : Денис Шведов, Владислав Толдыков, Константин Стрельников, Алексей Комашко, Сергей Жарков и др.
DIRECTOR : Юрий Быков
DATE_RELEASED : 2010
SUMMARY : for tas-ix.net
GENRE : драма
DESCRIPTION : 2010г. - Приз «Дебют»: Юрию БЫКОВУ, режиссеру фильма «ЖИТЬ» фестиваля «Золотой Феникс» (Смоленск). / 2010г. - Специальный приз Генерального продюсера фестиваля «Амурская осень» Антона Калюжного – режиссер Юрий Быков, фильм «Жить» (Благовещенск).
SYNOPSIS : Дикие места. Трое преследуют пожилого охотника и молодого парня. Один — проводник, второй — боец. Незнакомые, чуждые друг другу люди должны вместе выжить и добраться до города. Какова цена жизни? На этот вопрос каждый ответит по-своему.
Video
ID : 1
Format : AVC
Format/Info : Advanced Video Codec
Format profile : [email protected]
Format settings, CABAC : Yes
Format settings, ReFrames : 5 frames
Codec ID : V_MPEG4/ISO/AVC
Duration : 1h 12mn
Bit rate : 2 461 Kbps
Width : 720 pixels
Height : 544 pixels
Display aspect ratio : 1.882
Frame rate mode : Constant
Frame rate : 25.000 fps
Color space : YUV
Chroma subsampling : 4:2:0
Bit depth : 8 bits
Scan type : Progressive
Bits/(Pixel*Frame) : 0.251
Stream size : 1.24 GiB (91%)
Title : AVC [email protected] 25,000 кадр/сек
Writing library : x264 core 116 r2044 392e762
Encoding settings : cabac=1 / ref=5 / deblock=1:-1:-1 / analyse=0x3:0x133 / me=umh / subme=7 / psy=1 / psy_rd=1.00:0.00 / mixed_ref=1 / me_range=16 / chroma_me=1 / trellis=2 / 8x8dct=1 / cqm=0 / deadzone=21,11 / fast_pskip=0 / chroma_qp_offset=-2 / threads=3 / sliced_threads=0 / nr=0 / decimate=1 / interlaced=0 / bluray_compat=0 / constrained_intra=0 / bframes=3 / b_pyramid=2 / b_adapt=2 / b_bias=0 / direct=3 / weightb=1 / open_gop=0 / weightp=2 / keyint=250 / keyint_min=25 / scenecut=40 / intra_refresh=0 / rc_lookahead=50 / rc=crf / mbtree=1 / crf=18.0 / qcomp=0.60 / qpmin=0 / qpmax=69 / qpstep=4 / ip_ratio=1.40 / aq=1:1.00
Language : Russian
Default : Yes
Forced : No
Audio
ID : 2
Format : AC-3
Format/Info : Audio Coding 3
Mode extension : CM (complete main)
Format settings, Endianness : Big
Codec ID : A_AC3
Duration : 1h 12mn
Bit rate mode : Constant
Bit rate : 192 Kbps
Channel(s) : 2 channels
Channel positions : Front: L R
Sampling rate : 48.0 KHz
Bit depth : 16 bits
Compression mode : Lossy
Stream size : 98.9 MiB (7%)
Title : AC-3 192 Кбит/сек 2 канала
Language : Russian
Default : Yes
Forced : No

Скриншоты





Создавать темы 08-Янв-2015 11:40

[Профиль]  [ЛС] 
Показать сообщения:    
Ответить на тему

Текущее время: 23-Авг 01:43

Часовой пояс: UTC + 5



Вы не можете начинать темы
Вы не можете отвечать на сообщения
Вы не можете редактировать свои сообщения
Вы не можете удалять свои сообщения
Вы не можете голосовать в опросах
Вы не можете прикреплять файлы к сообщениям
Вы не можете скачивать файлы