[Movie]Малефисента / Maleficent [2014 г., Фэнтези, приключения, семейный, экранизация, ремейк, DVDRip][mp4 720x304]

Ответить на тему
 

SMaIL ®

Стаж: 3 года 9 месяцев

Сообщений: 740

Симпатии: 233

--Год выпуска: 2014
Страна: США, Великобритания
Жанр: Фэнтези, приключения, семейный, экранизация, ремейк
Продолжительность: 1:37:29
Перевод: Профессиональный (полное дублирование)--Режиссер: Роберт Стромберг / Robert Stromberg
В ролях: Анджелина Джоли, Элль Фэннинг, Шарлто Копли, Сэм Райли, Имелда Стонтон, Джуно Темпл, Лесли Мэнвилл, Брентон Туэйтес, Кеннет Крэнэм, Изобель Моллой--Описание: Юная волшебница Малефисента вела уединенную жизнь в зачарованном лесу, окруженная сказочными существами, но однажды все изменилось… В её мир вторглись люди, которые принесли с собой разрушение и хаос, и Малефисенте пришлось встать на защиту своих подданных, призвав на помощь могущественные тёмные силы. В пылу борьбы Малефисента наложила страшное заклятие на новорожденную дочь короля, прекрасную Аврору. Но, наблюдая за тем, как растет маленькая принцесса, Малефисента начинает сомневаться в правильности своего поступка — ведь, возможно, именно Аврора может вдохнуть новую жизнь в волшебное лесное царство. Экранизация произведения Элизабет Рудник "Малефисента. История истинной любви".--Качество: DVDRip
Формат: mp4
Видео кодек: AVC
Аудио кодек: AAC
Видео: 720х304 , 23.976 fps, 1562kbps
Аудио: 48000 Hz 2ch. 192 kbps--
  --

MI

Video #1
    ID : 1
    Format : AVC
    Format/Info : Advanced Video Codec
    Format profile : [email protected]
    Format settings, CABAC : Yes
    Format settings, ReFrames : 1 frame
    Codec ID : avc1
    Codec ID/Info : Advanced Video Coding
    Duration : 1h 37mn
    Duration_FirstFrame : 42ms
    Bit rate : 1 562 Kbps
    Width : 720 pixels
    Height : 304 pixels
    Display aspect ratio : 2.35:1
    Frame rate mode : Constant
    Frame rate : 23.976 fps
    Color space : YUV
    Chroma subsampling : 4:2:0
    Bit depth : 8 bits
    Scan type : Progressive
    Bits/(Pixel*Frame) : 0.298
    Stream size : 1.06 GiB (90%)
    Writing library : x264 core 129
  Audio #2
    ID : 2
    Format : AAC
    Format/Info : Advanced Audio Codec
    Format profile : LC
    Codec ID : 40
    Duration : 1h 37mn
    Duration_FirstFrame : 64ms
    Bit rate mode : Variable
    Bit rate : 165 Kbps
    Maximum bit rate : 192 Kbps
    Channel(s) : 2 channels
    Channel positions : Front: L R
    Sampling rate : 48.0 KHz
    Compression mode : Lossy
    Stream size : 115 MiB (10%)

Скриншоты


Создавать темы 10-Янв-2015 13:46

[Профиль]  [ЛС] 

abb90

Стаж: 5 лет

Сообщений: 18

Симпатии: 6

ok

Создавать темы 25-Янв-2015 06:46

[Профиль]  [ЛС] 
Показать сообщения:    
Ответить на тему

Текущее время: 21-Ноя 15:18

Часовой пояс: UTC + 5



Вы не можете начинать темы
Вы не можете отвечать на сообщения
Вы не можете редактировать свои сообщения
Вы не можете удалять свои сообщения
Вы не можете голосовать в опросах
Вы не можете прикреплять файлы к сообщениям
Вы не можете скачивать файлы