[Movie]Рейд/ Raid - Дилогия [2011,2014 гг., боевик, триллер, криминал, DVDRip][ mp4 720x400,720x304]

Ответить на тему
 

SMaIL ®

Стаж: 3 года 7 месяцев

Сообщений: 740

Симпатии: 233

Рейд / The Raid
--Год выпуска: 2011
Страна: США,Индонезия
Жанр: боевик, триллер, криминал
Продолжительность: 1:36:46
Перевод: Профессиональный (полное дублирование)[лицензия]--Режиссер: Гарет Эванс
В ролях: Ико Ювайс, Джо Таслим, Дони Аламсях, Яян Рухьян, Пьер Грюно, Рэй Сахетапи, Тегар Сатрия, Ианг Дармаван, Эка «Пиранья» Рахмадия, Верди Солайман--Описание: Отряд спецназовцев получает задание проникнуть в многоэтажный дом, расположенный в самом сердце трущоб Джакарты, и арестовать обосновавшегося там наркобарона, которого охраняет целая армия вооруженных до зубов головорезов. Операцию нужно провести без лишнего шума, но нелепая случайность нарушает планы служителей закона. Теперь бойцам негде спрятаться и некуда бежать. Перед ними 30 этажей ада, где смертью грозит каждый неверный шаг. Война по правилам кончилась. Выживает сильнейший!--Качество: DVDRip
Формат: mp4
Видео кодек: AVC
Аудио кодек: AAC
Видео: 720х400 , 25fps, 1681kbps
Аудио: 48000 Hz 6ch. 384 kbps--

MI

Video #1
    ID : 1
    Format : AVC
    Format/Info : Advanced Video Codec
    Format profile : [email protected]
    Format settings, CABAC : Yes
    Format settings, ReFrames : 1 frame
    Codec ID : avc1
    Codec ID/Info : Advanced Video Coding
    Duration : 1h 36mn
    Bit rate : 1 681 Kbps
    Width : 720 pixels
    Height : 400 pixels
    Display aspect ratio : 16:9
    Frame rate mode : Variable
    Frame rate : 25.000 fps
    Minimum frame rate : 12.500 fps
    Maximum frame rate : 25.000 fps
    Color space : YUV
    Chroma subsampling : 4:2:0
    Bit depth : 8 bits
    Scan type : Progressive
    Bits/(Pixel*Frame) : 0.233
    Stream size : 1.14 GiB (81%)
    Writing library : x264 core 129
  Audio #2
    ID : 2
    Format : AAC
    Format/Info : Advanced Audio Codec
    Format profile : LC
    Codec ID : 40
    Duration : 1h 36mn
    Duration_FirstFrame : 64ms
    Bit rate mode : Constant
    Bit rate : 384 Kbps
    Channel(s) : 6 channels
    Channel positions : Front: L C R, Side: L R, LFE
    Sampling rate : 48.0 KHz
    Compression mode : Lossy
    Stream size : 265 MiB (18%)

Скриншоты

Рейд 2/ The Raid 2
--Год выпуска: 2014
Страна: США,Индонезия
Жанр: боевик, триллер, криминал
Продолжительность: 2:30:30
Перевод: Профессиональный (полное дублирование)[лицензия]--Режиссер: Гарет Эванс
В ролях: Ико Ювайс, Арифин Путра, Джули Эстелль, Яян Рухьян, Дони Аламсях, Ока Антара, Кадзуки Китамура, Тио Пакусодево, Алекс Аббад, Сесеп Ариф Рахман--Описание: Из трех полицейских, выбравшихся из кровавого ада первой части, в живых остается только офицер Рама. Уволившись из спецназа, он пробует начать жизнь заново, но вскоре прошлое жестко напоминает о себе — преступники убивают его брата. Чтобы отомстить, он внедряется в мощный криминальный синдикат, где быстро поднимается до самых вершин бандитской иерархии. Врагов здесь еще больше, и каждый неверный шаг может оказаться последним. Здесь нет ни близких, ни друзей, ни любви, ни тоски, ни жалости!--Качество: DVDRip
Формат: mp4
Видео кодек: AVC
Аудио кодек: AAC
Видео: 720х304 , 23.976fps, 1562kbps
Аудио: 48000 Hz 6ch. 384 kbps--

MI

Video #1
    ID : 1
    Format : AVC
    Format/Info : Advanced Video Codec
    Format profile : [email protected]
    Format settings, CABAC : Yes
    Format settings, ReFrames : 1 frame
    Codec ID : avc1
    Codec ID/Info : Advanced Video Coding
    Duration : 2h 30mn
    Bit rate : 1 562 Kbps
    Width : 720 pixels
    Height : 304 pixels
    Display aspect ratio : 2.35:1
    Frame rate mode : Variable
    Frame rate : 23.976 fps
    Minimum frame rate : 11.988 fps
    Maximum frame rate : 23.976 fps
    Color space : YUV
    Chroma subsampling : 4:2:0
    Bit depth : 8 bits
    Scan type : Progressive
    Bits/(Pixel*Frame) : 0.298
    Stream size : 1.63 GiB (80%)
    Writing library : x264 core 129
  Audio #2
    ID : 2
    Format : AAC
    Format/Info : Advanced Audio Codec
    Format profile : LC
    Codec ID : 40
    Duration : 2h 30mn
    Duration_FirstFrame : 64ms
    Bit rate mode : Constant
    Bit rate : 384 Kbps
    Channel(s) : 6 channels
    Channel positions : Front: L C R, Side: L R, LFE
    Sampling rate : 48.0 KHz
    Compression mode : Lossy
    Stream size : 413 MiB (20%)

Скриншоты

Создавать темы 10-Янв-2015 15:59

[Профиль]  [ЛС] 
Показать сообщения:    
Ответить на тему

Текущее время: 20-Сен 00:03

Часовой пояс: UTC + 5



Вы не можете начинать темы
Вы не можете отвечать на сообщения
Вы не можете редактировать свои сообщения
Вы не можете удалять свои сообщения
Вы не можете голосовать в опросах
Вы не можете прикреплять файлы к сообщениям
Вы не можете скачивать файлы