[Movie]Типа копы / Let's Be Cops [2014 г., комедия, криминал, DVDRip][mp4 720x384]

Ответить на тему
 

SMaIL ®

Стаж: 3 года 8 месяцев

Сообщений: 740

Симпатии: 233

--Год выпуска: 2014
Страна: США
Жанр: комедия, криминал
Продолжительность: 1:44:28
Перевод: Профессиональный(полное дублирование)--Режиссер: Люк Гринфилд
В ролях: Дэймон Уайанс мл., Джейк Джонсон, Роб Риггл, Нина Добрев, Джеймс Д’Арси, Энди Гарсиа, Кигэн-Майкл Ки, Джон Лажуа, Том Мардиросян, Наташа Леггеро.--Описание: Получив приглашение на костюмированную вечеринку, два нерадивых приятеля решают нарядиться полицейскими, и вдруг их популярность среди гостей подскакивает до максимума. На волне успеха парни продолжают игру. Но неожиданно псевдокопы оказываются впутанными в реальную криминальную историю, и теперь им придется применить свои фальшивые значки по полной.--Качество: DVDRip
Формат: mp4
Видео кодек: AVC
Аудио кодек: AAC
Видео: 720х384 , 23.976 fps , 780kbps
Аудио: 48.0 kHz , 1ch, 82.6 kbps--

MI

Video #1
    ID : 1
    Format : AVC
    Format/Info : Advanced Video Codec
    Format profile : [email protected]
    Format settings, CABAC : Yes
    Format settings, ReFrames : 4 frames
    Codec ID : avc1
    Codec ID/Info : Advanced Video Coding
    Duration : 1h 44mn
    Source duration : 18mn 34s
    Bit rate mode : Variable
    Bit rate : 780 Kbps
    Maximum bit rate : 7 608 Kbps
    Width : 720 pixels
    Height : 384 pixels
    Display aspect ratio : 1.85:1
    Frame rate mode : Constant
    Frame rate : 23.976 fps
    Color space : YUV
    Chroma subsampling : 4:2:0
    Bit depth : 8 bits
    Scan type : Progressive
    Bits/(Pixel*Frame) : 0.118
    Stream size : 577 MiB (90%)
    Source stream size : 577 MiB (90%)
    Writing library : x264 core 125
  Audio #2
    ID : 2
    Format : AAC
    Format/Info : Advanced Audio Codec
    Format profile : LC
    Codec ID : 40
    Duration : 1h 44mn
    Bit rate mode : Variable
    Bit rate : 82.6 Kbps
    Maximum bit rate : 124 Kbps
    Channel(s) : 1 channel
    Channel positions : Front: C
    Sampling rate : 48.0 KHz
    Compression mode : Lossy
    Delay relative to video : 50ms
    Stream size : 61.8 MiB (10%)
    Encoded date : UTC 2014-11-04 19:12:32
    Tagged date : UTC 2014-11-04 19:19:29

Скриншоты

Создавать темы 10-Янв-2015 22:43

[Профиль]  [ЛС] 
Показать сообщения:    
Ответить на тему

Текущее время: 24-Окт 05:03

Часовой пояс: UTC + 5



Вы не можете начинать темы
Вы не можете отвечать на сообщения
Вы не можете редактировать свои сообщения
Вы не можете удалять свои сообщения
Вы не можете голосовать в опросах
Вы не можете прикреплять файлы к сообщениям
Вы не можете скачивать файлы