Овсянки (Алексей Федорченко) [2010 г., драма, DVDRip]

Ответить на тему
 

dj_umka_82 ®

Стаж: 4 года 3 месяца

Сообщений: 14

Овсянки 18+

Год выпуска: 2010
Жанр: драма
Продолжительность: 01:17:19


Режиссер: Алексей Федорченко
В ролях: Юрий Цурило, Игорь Сергеев, Юлия Ауг, Виктор Сухоруков, Лариса Домаскина
Описание: Мирон Алексеевич — директор бумажно-целлюлозного комбината — едет хоронить жену Таню в те места, где они когда-то проводили медовый месяц. Едет не один, а с фотографом по имени Аист, которому по дороге рассказывает трогательные подробности своей жизни с Таней. В повествование вплетаются воспоминания героев, а также обряды и верования народа мери — малочисленного финского племени, когда-то жившего в Северном Поволжье и растворившегося среди русских
Доп. информация: Лицам не достигшим 18+ просмотр фильма не рекомендуется
Качество: DVDRip
Формат: AVI
Видео кодек: Другой MPEG4
Аудио кодек: MPEG Audio
Видео: ID : 0 Format : MPEG-4 Visual Format profile : Advanced [email protected] Format settings, BVOP : 3 Format settings, QPel : No Format settings, GMC : No warppoints Format settings, Matrix : Default (H.263) Codec ID : XVID Codec ID/Hint : XviD Duration : 1h 14mn Bit rate : 1 182 Kbps Width : 688 pixels Height : 288 pixels Display aspect ratio : 2.40:1 Frame rate : 25.000 fps Color space : YUV Chroma subsampling : 4:2:0 Bit depth : 8 bits Scan type : Progressive Compression mode : Lossy Bits/(Pixel*Frame) : 0.239 Stream size : 628 MiB (90%) Writing library : XviD 1.2.0.dev47 (UTC 2006-11-01
Аудио: ID : 1 Format : MPEG Audio Format version : Version 1 Format profile : Layer 3 Codec ID : 55 Codec ID/Hint : MP3 Duration : 1h 14mn Bit rate mode : Constant Bit rate : 128 Kbps Channel(s) : 2 channels Sampling rate : 48.0 KHz Compression mode : Lossy Stream size : 68.0 MiB (10%) Alignment : Aligned on interleaves Interleave, duration : 40 ms (1.00 video frame) Interleave, preload duration : 504 ms Writing library : LAME3.97 Encoding settings : -m s -V 4 -q 2 -lowpass 17 -b 128

Скриншоты

Создавать темы 10-Янв-2015 23:28

[Профиль]  [ЛС] 

dj_umka_82 ®

Стаж: 4 года 3 месяца

Сообщений: 14

Проверте Уже

Создавать темы 10-Янв-2015 23:37

[Профиль]  [ЛС] 

tonimart

Стаж: 3 года 6 месяцев

Сообщений: 1

kak budem skachat?

Создавать темы 11-Янв-2015 13:27

[Профиль]  [ЛС] 

MOHCTP

Стаж: 7 лет 2 месяца

Сообщений: 9

еще долго ждать???????????????????????

Создавать темы 11-Янв-2015 15:31

[Профиль]  [ЛС] 

black_drow

Стаж: 6 лет 11 месяцев

Сообщений: 58

Симпатии: 8

Люди пож дайте скорости

Создавать темы 14-Янв-2015 02:08

[Профиль]  [ЛС] 

black_drow

Стаж: 6 лет 11 месяцев

Сообщений: 58

Симпатии: 8

Люди пож дайте скорости аааа((((

Создавать темы 16-Янв-2015 00:49

[Профиль]  [ЛС] 

Dimarcher

Стаж: 4 года 5 месяцев

Сообщений: 24

Симпатии: 1

пытаюсь скачать уже 6 дней - только 58 процентов. что за ерунда??????

Создавать темы 17-Янв-2015 19:13

[Профиль]  [ЛС] 

Astrolog

Стаж: 5 лет 2 месяца

Сообщений: 213

Симпатии: 27

912155пытаюсь скачать уже 6 дней - только 58 процентов. что за ерунда??????
У всех 58%, терпения.
Умка так раздаёт, по-маленько...

Создавать темы 17-Янв-2015 20:47

[Профиль]  [ЛС] 
Показать сообщения:    
Ответить на тему

Текущее время: 19-Авг 21:46

Часовой пояс: UTC + 5



Вы не можете начинать темы
Вы не можете отвечать на сообщения
Вы не можете редактировать свои сообщения
Вы не можете удалять свои сообщения
Вы не можете голосовать в опросах
Вы не можете прикреплять файлы к сообщениям
Вы не можете скачивать файлы