[Movie] Снайпер / American Sniper ENG (Клинт Иствуд) [2014 г., экшн, биография, драма, DVDRip] [mp4 640x360]

Ответить на тему
 

revis ®

Стаж: 6 лет 11 месяцев

Сообщений: 16

Снайпер / American Sniper
Год выпуска: 2014
Страна: США
Жанр: экшн, биография, драма
Продолжительность: 02:13:35
Перевод: Отсутствует
Режиссер: Клинт Иствуд
В ролях: Брэдли Купер, Бен Рид, Кайл Галлнер, Люк Граймс, Кир О'Доннелл, Брайан Холлисей, и другие...
Описание: Экранизация книги «Американский снайпер: Автобиография самого опасного снайпера в истории вооруженных сил США» рассказывает о бойце подразделения «морских котиков» Криса Кайле, который стал героем новостных выпусков после того, как в феврале 2013 года был застрелен одним из таких же, как он, ветеранов армейской службы.
Доп. информация: КАССОВЫЕ СБОРЫ И БЮДЖЕТ
сборы в США - 2.42 млн $
мировые сборы - 9 518 851 $
Качество: DVDRip
Формат: MP4
Видео кодек: AVC
Аудио кодек: AAC
Видео: 640x360, 29.970 fps, 359 Kbps
Аудио: 44100Hz stereo 96.0 Kbps, 2 ch
910321

MediaInfo

Video
ID : 1
Format : AVC
Format/Info : Advanced Video Codec
Format profile : [email protected]
Format settings, CABAC : No
Format settings, ReFrames : 1 frame
Format settings, GOP : M=1, N=60
Codec ID : avc1
Codec ID/Info : Advanced Video Coding
Duration : 2h 13mn
Bit rate : 359 Kbps
Maximum bit rate : 1 300 Kbps
Width : 640 pixels
Height : 360 pixels
Display aspect ratio : 16:9
Frame rate mode : Constant
Frame rate : 29.970 fps
Color space : YUV
Chroma subsampling : 4:2:0
Bit depth : 8 bits
Scan type : Progressive
Bits/(Pixel*Frame) : 0.052
Stream size : 343 MiB (78%)
Tagged date : UTC 2015-01-07 14:27:34
Audio
ID : 2
Format : AAC
Format/Info : Advanced Audio Codec
Format profile : LC
Codec ID : 40
Duration : 2h 13mn
Bit rate mode : Variable
Bit rate : 96.0 Kbps
Maximum bit rate : 103 Kbps
Channel(s) : 2 channels
Channel positions : Front: L R
Sampling rate : 44.1 KHz
Compression mode : Lossy
Stream size : 91.7 MiB (21%)
Title : IsoMedia File Produced by Google, 5-11-2011
Encoded date : UTC 2015-01-07 14:27:08
Tagged date : UTC 2015-01-07 14:27:34

Скриншоты





Последний раз редактировалось: revis (2015-01-14 02:49), всего редактировалось 3 раз(а)

Создавать темы 10-Янв-2015 23:50

[Профиль]  [ЛС] 

Ilham

Стаж: 6 лет 6 месяцев

Сообщений: 103

Симпатии: 3

когда будет перевод?

Создавать темы 11-Янв-2015 06:44

[Профиль]  [ЛС] 

SMaIL

Стаж: 3 года 6 месяцев

Сообщений: 740

Симпатии: 233

Шапка должна выглядеть следующим образом:
[Movie]Снайпер / American Sniper ENG (Клинт Иствуд) [2014 г., экшн, биография, драма, DVDScreener][mp4 640x360]
Продолжительность: чч:мм:сс
Формат: mp4
И выложите сюда MI

Создавать темы 11-Янв-2015 11:20

[Профиль]  [ЛС] 

Slapper

Стаж: 3 года 9 месяцев

Сообщений: 2193

Симпатии: 213

revis, выложите тех.данные файла, я всё поправлю

Создавать темы 11-Янв-2015 14:11

[Профиль]  [ЛС] 

conner

Стаж: 4 года 5 месяцев

Сообщений: 56

Симпатии: 7

asdasdasd

Создавать темы 11-Янв-2015 15:21

[Профиль]  [ЛС] 
Показать сообщения:    
Ответить на тему

Текущее время: 23-Авг 09:15

Часовой пояс: UTC + 5



Вы не можете начинать темы
Вы не можете отвечать на сообщения
Вы не можете редактировать свои сообщения
Вы не можете удалять свои сообщения
Вы не можете голосовать в опросах
Вы не можете прикреплять файлы к сообщениям
Вы не можете скачивать файлы