[Movie]Первый мститель: Другая война / Captain America: The Winter Soldier [2014 г., фантастика, боевик, приключения, DVDRip][mp4 720x304]

Ответить на тему
 

SMaIL ®

Стаж: 3 года 10 месяцев

Сообщений: 740

Симпатии: 233

Год выпуска: 2014
Страна: США
Жанр: фантастика, боевик, приключения
Продолжительность: 2:15:54
Перевод: Профессиональный (полное дублирование) [Лицензия]--Режиссер: Энтони Руссо, Джо Руссо
В ролях:
Крис Эванс
Скарлетт Йоханссон
Коби Смолдерс
Роберт Редфорд
Эмили ВанКэм
Сэмюэл Л
Джексон
Хейли Этвелл
Энтони Маки
Себастьян Стэн
Доминик Купер--Описание: После беспрецедентных событий, впервые собравших вместе команду Мстителей, Стив Роджерс, известный также как Капитан Америка, оседает в Вашингтоне и пытается приспособиться к жизни в современном мире. Но покой этому герою только снится пытаясь помочь коллеге из агентства Щ. И. Т, Стив оказывается в центре событий, грозящих катастрофой мирового масштаба. Для того, чтобы разоблачить злодейский заговор, Капитан Америка объединяется с Черной вдовой. К ним также присоединяется новый соратник, известный как Сокол, однако никто из них даже не подозревает, на что способен новый враг.--Качество: DVDRip
Формат: mp4
Видео кодек: AVC
Аудио кодек: AAC
Видео: 720x304 23.976 fps 1562 kbps
Аудио: 48000 Hz 6ch. 384 kbps
--

MI

Video #1
    ID : 1
    Format : AVC
    Format/Info : Advanced Video Codec
    Format profile : [email protected]
    Format settings, CABAC : Yes
    Format settings, ReFrames : 1 frame
    Format settings, GOP : M=1, N=3
    Codec ID : avc1
    Codec ID/Info : Advanced Video Coding
    Duration : 2h 15mn
    Duration_FirstFrame : 42ms
    Bit rate : 1 562 Kbps
    Width : 720 pixels
    Height : 304 pixels
    Display aspect ratio : 2.35:1
    Frame rate mode : Constant
    Frame rate : 23.976 fps
    Color space : YUV
    Chroma subsampling : 4:2:0
    Bit depth : 8 bits
    Scan type : Progressive
    Bits/(Pixel*Frame) : 0.298
    Stream size : 1.50 GiB (80%)
    Writing library : x264 core 129
  Audio #2
    ID : 2
    Format : AAC
    Format/Info : Advanced Audio Codec
    Format profile : LC
    Codec ID : 40
    Duration : 2h 15mn
    Duration_FirstFrame : 64ms
    Bit rate mode : Constant
    Bit rate : 384 Kbps
    Channel(s) : 6 channels
    Channel positions : Front: L C R, Side: L R, LFE
    Sampling rate : 48.0 KHz
    Compression mode : Lossy
    Stream size : 373 MiB (19%)

Скриншоты

Создавать темы 11-Янв-2015 18:27

[Профиль]  [ЛС] 
Показать сообщения:    
Ответить на тему

Текущее время: 12-Дек 17:13

Часовой пояс: UTC + 5



Вы не можете начинать темы
Вы не можете отвечать на сообщения
Вы не можете редактировать свои сообщения
Вы не можете удалять свои сообщения
Вы не можете голосовать в опросах
Вы не можете прикреплять файлы к сообщениям
Вы не можете скачивать файлы