[Movie]Соседи. На тропе войны / Neighbors [2014 г., Комедия, DVDRip][mp4 720x304]

Ответить на тему
 

SMaIL ®

Стаж: 3 года 6 месяцев

Сообщений: 740

Симпатии: 233

Соседи. На тропе войны / Neighbors
--Год выпуска: 2014
Страна: США
Жанр: Комедия
Продолжительность: 1:36:44
Перевод: Профессиональный(полное дублирование)--Режиссёр: Николас Столлер
В главных ролях: Сет Роген, Зак Эфрон, Роуз Бирн, Дэйв Франко, Кристофер Минц-Плассе, Айк Баринхолц, Карла Галло, Лиза Кудроу, Хелстон Сейдж, Джеррод Кармайкл...--Описание: Как известно, мужчины бывают двух типов: холостые и глубоко женатые. Первые молоды, мускулисты и точно магнит притягивают блондинок и шумных друзей. Вторые обитают дома, выращивают детей и поглощают сериалы по телеку. Обычно их пути не пересекаются. Но стоит им стать соседями, мужчины выходят на тропу войны...--Качество: DVDRip
Формат: mp4
Видео кодек: AVC
Аудио кодек: AAC
Видео: 720x304 23.976 fps 780kbps
Аудио: 48000 Hz 1ch. 82.7 kbps--

MI

Video #1
    ID : 1
    Format : AVC
    Format/Info : Advanced Video Codec
    Format profile : [email protected]
    Format settings, CABAC : Yes
    Format settings, ReFrames : 4 frames
    Codec ID : avc1
    Codec ID/Info : Advanced Video Coding
    Duration : 1h 36mn
    Bit rate mode : Variable
    Bit rate : 780 Kbps
    Maximum bit rate : 3 703 Kbps
    Width : 720 pixels
    Height : 304 pixels
    Display aspect ratio : 2.35:1
    Frame rate mode : Constant
    Frame rate : 23.976 fps
    Color space : YUV
    Chroma subsampling : 4:2:0
    Bit depth : 8 bits
    Scan type : Progressive
    Bits/(Pixel*Frame) : 0.149
    Stream size : 540 MiB (90%)
    Writing library : x264 core 125
  Audio #2
    ID : 2
    Format : AAC
    Format/Info : Advanced Audio Codec
    Format profile : LC
    Codec ID : 40
    Duration : 1h 36mn
    Bit rate mode : Variable
    Bit rate : 82.7 Kbps
    Maximum bit rate : 103 Kbps
    Channel(s) : 1 channel
    Channel positions : Front: C
    Sampling rate : 48.0 KHz
    Compression mode : Lossy
    Delay relative to video : 50ms
    Stream size : 57.2 MiB (10%)
    Encoded date : UTC 2014-08-19 13:39:47
    Tagged date : UTC 2014-08-19 13:46:50

Скриншоты

Создавать темы 11-Янв-2015 18:36

[Профиль]  [ЛС] 
Показать сообщения:    
Ответить на тему

Текущее время: 20-Авг 14:58

Часовой пояс: UTC + 5



Вы не можете начинать темы
Вы не можете отвечать на сообщения
Вы не можете редактировать свои сообщения
Вы не можете удалять свои сообщения
Вы не можете голосовать в опросах
Вы не можете прикреплять файлы к сообщениям
Вы не можете скачивать файлы