Токийский Гуль (ТВ-2) / Tokyo Ghoul A [TV] [12 из 12] [Без хардсаба] [RUS(int)] [2015 г., экшен, мистика, драма, ужасы, HDTVRip] [720p] [KANSAI]

Страницы :  1, 2  След.

Ответить на тему
 

FireHowler ®

Стаж: 4 года 5 месяцев

Сообщений: 270

Симпатии: 153

Токийский Гуль √A | Tokyo Ghoul √A- Страна: Япония
Год выпуска: 2015 г.
Жанр: экшен, мистика, драма, ужасы
Тип: TV
Продолжительность: 12 эп, ~25 мин. серия
Режиссер: Морита Сюхэй
Студия: Studio Pierrot-Описание: Токио сотрясает волна жестоких убийств, на местах преступлений туго с уликами, но все уверены, что виновники – монстры, пожирающие людей, хотя никто толком не знает, кто они или как выглядят. А двое студентов колледжа, Канеки и Хидэ, считают, что монстров до сих пор не обнаружили только потому, что они очень ловко маскируются под своих жертв... Однажды в своём любимом кафе Канеки знакомится с Ридзе, девушкой, столь же охочей до чтения, как и он сам. Парень ещё и не подозревает, что вся его жизнь вот-вот изменится самым кардинальным образом.
Информационные ссылки: World-Art | ANN | MAL | AniDB-Качество: HDTVRip
Тип релиза: Без хардсаба
Формат видео: MP4
Наличие линковки: Нет
Автор рипа: Leopard-raws
Видео: H264 (8 bit), 1280x720 (16:9), 2 097 kbps, 23,976 fps
Аудио: AAC, 192 kbps, 48 Khz, 2 ch | Язык Русский (в составе контейнера) ; Озвучка: Многоголосая, закадровая. Студия KANSAI

Подробные тех. данные

General
Format : MPEG-4
Format profile : Base Media
Codec ID : isom
File size : 402 MiB
Duration : 24mn 29s
Overall bit rate mode : Variable
Overall bit rate : 2 292 Kbps
Encoded date : UTC 2015-01-11 15:37:31
Tagged date : UTC 2015-01-11 15:37:31
Writing application : Yamb 2.1.0.0
Video
ID : 1
Format : AVC
Format/Info : Advanced Video Codec
Format profile : [email protected]
Format settings, CABAC : Yes
Format settings, ReFrames : 4 frames
Codec ID : avc1
Codec ID/Info : Advanced Video Coding
Duration : 24mn 29s
Bit rate : 2 097 Kbps
Maximum bit rate : 17.0 Mbps
Width : 1 280 pixels
Height : 720 pixels
Display aspect ratio : 16:9
Frame rate mode : Constant
Frame rate : 23.976 fps
Color space : YUV
Chroma subsampling : 4:2:0
Bit depth : 8 bits
Scan type : Progressive
Bits/(Pixel*Frame) : 0.095
Stream size : 367 MiB (91%)
Title : 264
Writing library : x264 core 129 r2245+729M 1a52e03
Encoding settings : cabac=1 / ref=4 / deblock=1:1:-1 / analyse=0x3:0x113 / me=umh / subme=9 / psy=1 / fade_compensate=0.00 / psy_rd=1.00:0.00 / mixed_ref=1 / me_range=24 / chroma_me=1 / trellis=2 / 8x8dct=1 / cqm=0 / deadzone=21,11 / fast_pskip=1 / chroma_qp_offset=-2 / threads=8 / lookahead_threads=1 / sliced_threads=0 / nr=0 / decimate=1 / interlaced=0 / bluray_compat=0 / constrained_intra=0 / fgo=0 / bframes=9 / b_pyramid=2 / b_adapt=2 / b_bias=0 / direct=1 / weightb=1 / open_gop=0 / weightp=2 / keyint=240 / keyint_min=24 / scenecut=40 / intra_refresh=0 / rc=crf / mbtree=0 / crf=18.0 / qcomp=0.72 / qpmin=0 / qpmax=69 / qpstep=4 / ip_ratio=1.40 / pb_ratio=1.30 / aq=1:0.85
Encoded date : UTC 2015-01-08 18:50:42
Tagged date : UTC 2015-01-11 15:38:32
Color primaries : BT.709
Transfer characteristics : BT.709
Matrix coefficients : BT.709
Audio
ID : 2
Format : AAC
Format/Info : Advanced Audio Codec
Format profile : LC
Codec ID : 40
Duration : 24mn 29s
Bit rate mode : Variable
Bit rate : 192 Kbps
Maximum bit rate : 198 Kbps
Channel(s) : 2 channels
Channel positions : Front: L R
Sampling rate : 48.0 KHz
Compression mode : Lossy
Stream size : 33.6 MiB (8%)
Encoded date : UTC 2015-01-11 15:38:30
Tagged date : UTC 2015-01-11 15:38:32

Список эпизодов

01. New Surge
02. Dancing Flowers
03. Hangman
04. Deeper Layers
05. Rift
06. Thousand Paths
07. Permeation
08. Old Nines
09. City in Waiting
10. Last Rain
11. Deluge of Flowers
12. Ken

Отличия

https://tas-ix.net/viewtopic.php?t=102283 - альтернативная озвучка

Скриншоты





Последний раз редактировалось: FireHowler (2015-03-30 17:27), всего редактировалось 17 раз(а)

Создавать темы 11-Янв-2015 22:16

[Профиль]  [ЛС] 

Inquisitor

Стаж: 5 лет 9 месяцев

Сообщений: 133

Симпатии: 6

Ураа спасибо большое за озвучку от Кайнсай)

Создавать темы 16-Янв-2015 16:13

[Профиль]  [ЛС] 

FireHowler ®

Стаж: 4 года 5 месяцев

Сообщений: 270

Симпатии: 153

Добавил вторую серию.

Создавать темы 19-Янв-2015 07:29

[Профиль]  [ЛС] 

FireHowler ®

Стаж: 4 года 5 месяцев

Сообщений: 270

Симпатии: 153

Добавил третью серию.

Создавать темы 27-Янв-2015 18:03

[Профиль]  [ЛС] 

kpo7uk

Стаж: 5 лет 4 месяца

Сообщений: 5

Спасибо. Очень понравилось это аниме

Создавать темы 31-Янв-2015 19:36

[Профиль]  [ЛС] 

FireHowler ®

Стаж: 4 года 5 месяцев

Сообщений: 270

Симпатии: 153

4 серия.

Создавать темы 01-Фев-2015 21:54

[Профиль]  [ЛС] 

FireHowler ®

Стаж: 4 года 5 месяцев

Сообщений: 270

Симпатии: 153

5 серия.

Создавать темы 10-Фев-2015 21:03

[Профиль]  [ЛС] 

FireHowler ®

Стаж: 4 года 5 месяцев

Сообщений: 270

Симпатии: 153

6 серия.

Создавать темы 14-Фев-2015 21:29

[Профиль]  [ЛС] 

FireHowler ®

Стаж: 4 года 5 месяцев

Сообщений: 270

Симпатии: 153

7 серия.

Создавать темы 01-Мар-2015 02:37

[Профиль]  [ЛС] 

FireHowler ®

Стаж: 4 года 5 месяцев

Сообщений: 270

Симпатии: 153

8 серия.

Создавать темы 02-Мар-2015 20:50

[Профиль]  [ЛС] 

FireHowler ®

Стаж: 4 года 5 месяцев

Сообщений: 270

Симпатии: 153

9 серия.

Создавать темы 14-Мар-2015 05:59

[Профиль]  [ЛС] 

FireHowler ®

Стаж: 4 года 5 месяцев

Сообщений: 270

Симпатии: 153

10 серия.

Создавать темы 16-Мар-2015 03:57

[Профиль]  [ЛС] 

FireHowler ®

Стаж: 4 года 5 месяцев

Сообщений: 270

Симпатии: 153

Добавил 11 серию.

Создавать темы 26-Мар-2015 07:55

[Профиль]  [ЛС] 

Machine

Стаж: 5 лет 2 месяца

Сообщений: 209

Симпатии: 68

FireHowler, Во, благодарю и лайк.

Создавать темы 26-Мар-2015 13:05

[Профиль]  [ЛС] 

FireHowler ®

Стаж: 4 года 5 месяцев

Сообщений: 270

Симпатии: 153

Добавил 12 серию. Конец сезона.

Создавать темы 30-Мар-2015 15:13

[Профиль]  [ЛС] 
Показать сообщения:    
Ответить на тему

Текущее время: 24-Окт 07:25

Часовой пояс: UTC + 5



Вы не можете начинать темы
Вы не можете отвечать на сообщения
Вы не можете редактировать свои сообщения
Вы не можете удалять свои сообщения
Вы не можете голосовать в опросах
Вы не можете прикреплять файлы к сообщениям
Вы не можете скачивать файлы