Агент Картер / Agent Carter / Сезон 1 полный / Серий 8 (Луис Д'Эспозито, Питер Лето, Джо Руссо, Скотт Уинэнт) [2015 г., боевик, приключения, фэнтези, WEB-DL] MVO LostFilm.TV

Ответить на тему
 

CoolDX ®

Стаж: 6 лет 10 месяцев

Сообщений: 196

Симпатии: 59

Агент Картер / Agent Carter
~ Полный 1 сезон (8 серий) ~
Год выпуска: 2015
Выпущено: США
Жанр: боевик, приключения, фэнтези
Продолжительность: ~00:42:00
Озвучивание: Профессиональное (многоголосое) LostFilm.TV
Режиссеры: Луис Д'Эспозито, Питер Лето, Джо Руссо, Скотт Уинэнт
В ролях: Хейли Этвелл (Пегги Картер), Доминик Купер (Говард Старк), Джеймс Д’Арси (Эдвин Джарвис), Миген Фэй (Мириам Фрай), Линдси Фонсека (Энджи Мартинелли), Бриджит Риган (Дотти Андервуд), Ши Уигхэм (Роджер Дули), Энвер Гьокай (Дэниел Соуза), Чад Майкл Мюррей (Джек Томпсон)
Описание: История Пегги Картер. В 1946 году мир нанес Пегги серьезный удар, когда она оказывается в неудобном для нее положении с возвращением домой мужчин со сражений за границей. Работая на секретную организацию СНР (Стратегический Научный Резерв), Пегги должна найти баланс между административной работой и секретными миссиями для Говарда Старка, одновременно пытаясь жить нормальной жизнью одинокой женщины в Америке после утраты любви всей ее жизни — Стива Роджерса.-IMDB рейтинг: 8.4/10 (14 632 голосов)
Кинопоиск рейтинг: 7.521 (1772 голосов)-Формат: MKV
Качество: WEB-DL
Видео: MPEG-4 AVC/H.264, 1024x576 (16:9), 23.976 fps, ~2144 kbps
Аудио RUS : AC3, 48 kHz, 3/2 (L,C,R,l,r) + LFE ch, ~384.00 kbps | LostFilm
Аудио ENG : AC3, 48 kHz, 3/2 (L,C,R,l,r) + LFE ch, ~384.00 kbps | Original
Субтитры: Русские, Английские-Релиз подготовлен при поддержке проекта CoolDX-

MediaInfo

General
Unique ID : 189933648678247080003201599710654782657 (0x8EE3E3E073B7F98EA1AF7997B3925CC1)
Format : Matroska
Format version : Version 4 / Version 2
File size : 906 MiB
Duration : 42mn 37s
Overall bit rate : 2 972 Kbps
Encoded date : UTC 2015-01-11 22:02:05
Writing application : mkvmerge v6.8.0 ('Theme for Great Cities') 32bit built on Mar 2 2014 21:27:07
Writing library : libebml v1.3.0 + libmatroska v1.4.1
Video
ID : 1
Format : AVC
Format/Info : Advanced Video Codec
Format profile : [email protected]
Format settings, CABAC : No
Format settings, ReFrames : 1 frame
Codec ID : V_MPEG4/ISO/AVC
Duration : 42mn 37s
Bit rate : 2 144 Kbps
Width : 1 024 pixels
Height : 576 pixels
Display aspect ratio : 16:9
Frame rate mode : Constant
Frame rate : 23.976 fps
Color space : YUV
Chroma subsampling : 4:2:0
Bit depth : 8 bits
Scan type : Progressive
Bits/(Pixel*Frame) : 0.152
Stream size : 654 MiB (72%)
Title : Release from CoolDX
Language : English
Default : Yes
Forced : No
Audio #1
ID : 2
Format : AC-3
Format/Info : Audio Coding 3
Mode extension : CM (complete main)
Format settings, Endianness : Big
Codec ID : A_AC3
Duration : 42mn 37s
Bit rate mode : Constant
Bit rate : 384 Kbps
Channel(s) : 6 channels
Channel positions : Front: L C R, Side: L R, LFE
Sampling rate : 48.0 KHz
Bit depth : 16 bits
Compression mode : Lossy
Stream size : 117 MiB (13%)
Title : LostFilm 5.1
Language : Russian
Default : Yes
Forced : No
Audio #2
ID : 3
Format : AC-3
Format/Info : Audio Coding 3
Mode extension : CM (complete main)
Format settings, Endianness : Big
Codec ID : A_AC3
Duration : 42mn 37s
Bit rate mode : Constant
Bit rate : 384 Kbps
Channel(s) : 6 channels
Channel positions : Front: L C R, Side: L R, LFE
Sampling rate : 48.0 KHz
Bit depth : 16 bits
Compression mode : Lossy
Stream size : 117 MiB (13%)
Title : Original
Language : English
Default : No
Forced : No
Text
ID : 4
Format : UTF-8
Codec ID : S_TEXT/UTF8
Codec ID/Info : UTF-8 Plain Text
Title : CC
Language : English
Default : Yes
Forced : No

Список серий:

01. Это еще не конец (Now is Not The End)
02. Мост и тоннель (Bridge and Tunnel)
03. Течение времени (Time and Tide)
04. Кнопка «Блицкриг» (The Blitzkrieg Button)
05. Железный потолок (The Iron Ceiling)
06. Грех в заблуждении (A Sin to Err)
07. Капут (SNAFU)
08. Прощальная речь (Valediction)

Скриншоты









Раздача ведется путем добавления новых серий

Когда раздача ведётся путём добавления новых серий, при каждом добавлении создётся новый торрент. Чтобы начать докачку новой серии, пользователям необходимо сделать следующее:
(1) остановить скачивание,
(2) удалить старый торрент у себя из клиента (старые серии удалять не надо),
(3) скачать новый торрент и запустить его у себя в клиенте вместо старого, при этом указать клиенту путь в старую папку, куда и должно происходить скачивание новых серий.
Ваш клиент при этом должен произвести хеширование (проверку) старой папки (если не производит сам - помогите ему сделать это), и будет докачивать только те серии, которых у вас ещё нет. Старые серии при этом не удаляются, а продолжают раздаваться!
Eсли вы уже удалили старые серии, то предотвратить повторную закачку старых серий можно, отжав галочку в соответсвующих местах при запуске нового торрента. По возможности, желательно не удалять старые серии как можно дольше, чтобы релизёр не столько продолжал раздавать старые серии, а смог сконцентрироваться на новых.


Последний раз редактировалось: CoolDX (2015-02-28 18:27), всего редактировалось 7 раз(а)

Создавать темы 12-Янв-2015 03:52

[Профиль]  [ЛС] 

bbs-97

Стаж: 4 года 5 месяцев

Сообщений: 83

Симпатии: 68

Будем смотреть пока что Агенты ЩИТ, Стрела и Флэш не вернуться) Спасибо автору!

Создавать темы 12-Янв-2015 21:36

[Профиль]  [ЛС] 

Топик был перенесен из форума Сериалы (сезон 2014-2015) в форум HD
emilsky

Создавать темы 12-Янв-2015 21:38

 

CoolDX ®

Стаж: 6 лет 10 месяцев

Сообщений: 196

Симпатии: 59

добавлена 2ая серия и обновлена 1ая (внедрены русские сабы)

Создавать темы 16-Янв-2015 00:33

[Профиль]  [ЛС] 

CoolDX ®

Стаж: 6 лет 10 месяцев

Сообщений: 196

Симпатии: 59

добавлена 3тья серия

Создавать темы 17-Янв-2015 02:31

[Профиль]  [ЛС] 

CoolDX ®

Стаж: 6 лет 10 месяцев

Сообщений: 196

Симпатии: 59

добавлена 4ая серия

Создавать темы 02-Фев-2015 03:20

[Профиль]  [ЛС] 

CoolDX ®

Стаж: 6 лет 10 месяцев

Сообщений: 196

Симпатии: 59

добавлены 5ая и 6ая серия

Создавать темы 15-Фев-2015 15:17

[Профиль]  [ЛС] 

CoolDX ®

Стаж: 6 лет 10 месяцев

Сообщений: 196

Симпатии: 59

добавлена 7ая серия

Создавать темы 22-Фев-2015 20:49

[Профиль]  [ЛС] 

CoolDX ®

Стаж: 6 лет 10 месяцев

Сообщений: 196

Симпатии: 59

добавлена финальная 8ая серия 1го сезона
P.S. Всем приятного просмотра ;)

Создавать темы 28-Фев-2015 18:25

[Профиль]  [ЛС] 

designzor

Стаж: 4 года 5 месяцев

Сообщений: 29

Спасибо, CoolDX! Теперь бы скачать как-нибудь, было бы вообще замечательно!!)

Создавать темы 20-Май-2016 13:49

[Профиль]  [ЛС] 
Показать сообщения:    
Ответить на тему

Текущее время: 19-Ноя 12:00

Часовой пояс: UTC + 5



Вы не можете начинать темы
Вы не можете отвечать на сообщения
Вы не можете редактировать свои сообщения
Вы не можете удалять свои сообщения
Вы не можете голосовать в опросах
Вы не можете прикреплять файлы к сообщениям
Вы не можете скачивать файлы