UFC Fight Night 58: Machida vs. Dollaway (Full Event) [20.12.2014 г., MMA, WEB-DL/HDTV 480 [2014 г., MMA, BDRip]

Ответить на тему
 

damien1987 ®

Стаж: 3 года 11 месяцев

Сообщений: 7

Симпатии: 1

UFC Fight Night 58: Machida vs. Dollaway (Full Event) [20.12.2014 г., MMA, WEB-DL/HDTV 480
Год выпуска: 2014
Вид спорта: MMA
Продолжительность: 4:56:48
Комментарий: Не требуется
Описание: Все бои турнира "UFC Fight Night 58: Machida vs. Dollaway", прошедшего 20 декабря 2014 года в "Jose Correa Gymnasium", Баруэри, Бразилия.
Качество: WEB-DL/HDTV 480/480p
Формат: MP4
Видео кодек: H.264
Аудио кодек: AC3
Видео: 1.854x480 (16:9), 29,970 fps, H264, ~1500 kbps avg, ~0.119 bit/pixel
2.688x400 (16:9), 29,970 fps, H264, ~1100 kbps avg, ~0.130 bit/pixel
3.700x400 (16:9), 29,970 fps, H264, ~1100 kbps avg, ~0.130 bit/pixel
Аудио: 1.48 kHz, AAC, 2/0 (L,R), ~128.00 kbps avg
2.48 kHz, AAC, 2/0 (L,R), ~160.00 kbps avg
3.48 kHz, AAC, 2/0 (L,R), ~160.00 kbps avg

Скриншоты



Состав

1. UFC Fight Night 58: Early Prelims (1:00:00)

2. UFC Fight Night 58: Preliminary Card (1:32:43)

3. UFC Fight Night 58: Main Card (2:24:05)

MediaInfo

1.E:\Install\Torrent\Recv\UFC Fight Night 58. Machida vs. Dollaway (Full Event) [HDTV 400p]\UFC.Fight.Night.58.Machida.vs.Dollaway.Early.Prelims.WEB.DL.x264-ViLLAiNS.mp4
General
Complete name : E:\Install\Torrent\Recv\UFC Fight Night 58. Machida vs. Dollaway (Full Event) [HDTV 400p]\UFC.Fight.Night.58.Machida.vs.Dollaway.Early.Prelims.WEB.DL.x264-ViLLAiNS.mp4
Format : MPEG-4
Format profile : Base Media
Codec ID : isom
File size : 678 MiB
Duration : 1h 0mn
Overall bit rate : 1 579 Kbps
Writing application : Lavf56.4.102
Video #1
ID : 1
Format : AVC
Format/Info : Advanced Video Codec
Format profile : [email protected]
Format settings, CABAC : Yes
Format settings, ReFrames : 3 frames
Codec ID : avc1
Codec ID/Info : Advanced Video Coding
Duration : 59mn 59s
Bit rate : 1 442 Kbps
Width : 854 pixels
Height : 480 pixels
Display aspect ratio : 16:9
Frame rate mode : Variable
Frame rate : 29.970 fps
Minimum frame rate : 29.940 fps
Maximum frame rate : 30.000 fps
Color space : YUV
Chroma subsampling : 4:2:0
Bit depth : 8 bits
Scan type : Progressive
Bits/(Pixel*Frame) : 0.117
Stream size : 619 MiB (91%)
Audio #2
ID : 2
Format : AAC
Format/Info : Advanced Audio Codec
Format profile : LC
Codec ID : 40
Duration : 1h 0mn
Bit rate mode : Constant
Bit rate : 128 Kbps
Channel(s) : 2 channels
Channel positions : Front: L R
Sampling rate : 44.1 KHz
Compression mode : Lossy
Stream size : 55.0 MiB (8%)
Text #1-CC1
ID : 1-CC1
Format : EIA-608
Muxing mode : SCTE 128 / DTVCC Transport
Muxing mode, more info : Muxed in Video #1
Duration : 59mn 59s
Bit rate mode : Constant
Stream size : 0.00 Byte (0%)
Encoded stream size : 0.00 Byte (0%)
2.E:\Install\Torrent\Recv\UFC Fight Night 58. Machida vs. Dollaway (Full Event) [HDTV 400p]\UFC.Fight.Night.Prelims.Dec.20th.2014.HDTV.x264-Sir.Paul.mp4
General
Complete name : E:\Install\Torrent\Recv\UFC Fight Night 58. Machida vs. Dollaway (Full Event) [HDTV 400p]\UFC.Fight.Night.Prelims.Dec.20th.2014.HDTV.x264-Sir.Paul.mp4
Format : MPEG-4
Format profile : Base Media / Version 2
Codec ID : mp42
File size : 833 MiB
Duration : 1h 32mn
Overall bit rate mode : Variable
Overall bit rate : 1 256 Kbps
Writing application : HandBrake 0.10.0 2014112200
Video #1
ID : 1
Format : AVC
Format/Info : Advanced Video Codec
Format profile : [email protected]
Format settings, CABAC : Yes
Format settings, ReFrames : 4 frames
Codec ID : avc1
Codec ID/Info : Advanced Video Coding
Duration : 1h 32mn
Bit rate : 1 100 Kbps
Width : 688 pixels
Height : 400 pixels
Display aspect ratio : 16:9
Original display aspect ratio : 16:9
Frame rate mode : Constant
Frame rate : 29.970 fps
Color space : YUV
Chroma subsampling : 4:2:0
Bit depth : 8 bits
Scan type : Progressive
Bits/(Pixel*Frame) : 0.133
Stream size : 722 MiB (87%)
Writing library : x264 core 142 r2479 dd79a61
Encoding settings : cabac=1 / ref=1 / deblock=1:0:0 / analyse=0x1:0x111 / me=hex / subme=2 / psy=1 / psy_rd=1.00:0.00 / mixed_ref=0 / me_range=16 / chroma_me=1 / trellis=0 / 8x8dct=0 / cqm=0 / deadzone=21,11 / fast_pskip=1 / chroma_qp_offset=0 / threads=12 / lookahead_threads=3 / sliced_threads=0 / nr=0 / decimate=1 / interlaced=0 / bluray_compat=0 / constrained_intra=0 / bframes=3 / b_pyramid=2 / b_adapt=1 / b_bias=0 / direct=1 / weightb=1 / open_gop=0 / weightp=1 / keyint=300 / keyint_min=30 / scenecut=40 / intra_refresh=0 / rc_lookahead=10 / rc=abr / mbtree=1 / bitrate=1100 / ratetol=1.0 / qcomp=0.60 / qpmin=0 / qpmax=69 / qpstep=4 / vbv_maxrate=20000 / vbv_bufsize=25000 / nal_hrd=none / filler=0 / ip_ratio=1.40 / aq=1:1.00
Color primaries : BT.709
Transfer characteristics : BT.709
Matrix coefficients : BT.709
Audio #2
ID : 2
Format : AAC
Format/Info : Advanced Audio Codec
Format profile : LC
Codec ID : 40
Duration : 1h 32mn
Bit rate mode : Variable
Bit rate : 160 Kbps
Channel(s) : 2 channels
Channel positions : Front: L R
Sampling rate : 48.0 KHz
Compression mode : Lossy
Stream size : 106 MiB (13%)
Title : Stereo
Language : English
3.E:\Install\Torrent\Recv\UFC Fight Night 58. Machida vs. Dollaway (Full Event) [HDTV 400p]\UFC.Fight.Night.Machida.vs.Dollaway.Dec.20th.2014.HDTV.x264-Sir.Paul.mp4
General
Complete name : E:\Install\Torrent\Recv\UFC Fight Night 58. Machida vs. Dollaway (Full Event) [HDTV 400p]\UFC.Fight.Night.Machida.vs.Dollaway.Dec.20th.2014.HDTV.x264-Sir.Paul.mp4
Format : MPEG-4
Format profile : Base Media / Version 2
Codec ID : mp42
File size : 1.28 GiB
Duration : 2h 24mn
Overall bit rate mode : Variable
Overall bit rate : 1 268 Kbps
Writing application : HandBrake 0.10.0 2014112200
Video #1
ID : 1
Format : AVC
Format/Info : Advanced Video Codec
Format profile : [email protected]
Format settings, CABAC : Yes
Format settings, ReFrames : 4 frames
Codec ID : avc1
Codec ID/Info : Advanced Video Coding
Duration : 2h 24mn
Bit rate : 1 100 Kbps
Width : 700 pixels
Height : 400 pixels
Display aspect ratio : 16:9
Original display aspect ratio : 16:9
Frame rate mode : Constant
Frame rate : 29.970 fps
Color space : YUV
Chroma subsampling : 4:2:0
Bit depth : 8 bits
Scan type : Progressive
Bits/(Pixel*Frame) : 0.131
Stream size : 1.11 GiB (87%)
Writing library : x264 core 142 r2479 dd79a61
Encoding settings : cabac=1 / ref=1 / deblock=1:0:0 / analyse=0x1:0x111 / me=hex / subme=2 / psy=1 / psy_rd=1.00:0.00 / mixed_ref=0 / me_range=16 / chroma_me=1 / trellis=0 / 8x8dct=0 / cqm=0 / deadzone=21,11 / fast_pskip=1 / chroma_qp_offset=0 / threads=12 / lookahead_threads=3 / sliced_threads=0 / nr=0 / decimate=1 / interlaced=0 / bluray_compat=0 / constrained_intra=0 / bframes=3 / b_pyramid=2 / b_adapt=1 / b_bias=0 / direct=1 / weightb=1 / open_gop=0 / weightp=1 / keyint=300 / keyint_min=30 / scenecut=40 / intra_refresh=0 / rc_lookahead=10 / rc=abr / mbtree=1 / bitrate=1100 / ratetol=1.0 / qcomp=0.60 / qpmin=0 / qpmax=69 / qpstep=4 / vbv_maxrate=20000 / vbv_bufsize=25000 / nal_hrd=none / filler=0 / ip_ratio=1.40 / aq=1:1.00
Color primaries : BT.709
Transfer characteristics : BT.709
Matrix coefficients : BT.709
Audio #2
ID : 2
Format : AAC
Format/Info : Advanced Audio Codec
Format profile : LC
Codec ID : 40
Duration : 2h 24mn
Bit rate mode : Variable
Bit rate : 160 Kbps
Channel(s) : 2 channels
Channel positions : Front: L R
Sampling rate : 48.0 KHz
Compression mode : Lossy
Stream size : 165 MiB (13%)
Title : Stereo
Language : English
3.E:\Install\Torrent\Recv\UFC Fight Night 58. Machida vs. Dollaway (Full Event) [HDTV 400p]\UFC.Fight.Night.Machida.vs.Dollaway.Dec.20th.2014.HDTV.x264-Sir.Paul.mp4
General
Complete name : E:\Install\Torrent\Recv\UFC Fight Night 58. Machida vs. Dollaway (Full Event) [HDTV 400p]\UFC.Fight.Night.Machida.vs.Dollaway.Dec.20th.2014.HDTV.x264-Sir.Paul.mp4
Format : MPEG-4
Format profile : Base Media / Version 2
Codec ID : mp42
File size : 1.28 GiB
Duration : 2h 24mn
Overall bit rate mode : Variable
Overall bit rate : 1 268 Kbps
Writing application : HandBrake 0.10.0 2014112200
Video #1
ID : 1
Format : AVC
Format/Info : Advanced Video Codec
Format profile : [email protected]
Format settings, CABAC : Yes
Format settings, ReFrames : 4 frames
Codec ID : avc1
Codec ID/Info : Advanced Video Coding
Duration : 2h 24mn
Bit rate : 1 100 Kbps
Width : 700 pixels
Height : 400 pixels
Display aspect ratio : 16:9
Original display aspect ratio : 16:9
Frame rate mode : Constant
Frame rate : 29.970 fps
Color space : YUV
Chroma subsampling : 4:2:0
Bit depth : 8 bits
Scan type : Progressive
Bits/(Pixel*Frame) : 0.131
Stream size : 1.11 GiB (87%)
Writing library : x264 core 142 r2479 dd79a61
Encoding settings : cabac=1 / ref=1 / deblock=1:0:0 / analyse=0x1:0x111 / me=hex / subme=2 / psy=1 / psy_rd=1.00:0.00 / mixed_ref=0 / me_range=16 / chroma_me=1 / trellis=0 / 8x8dct=0 / cqm=0 / deadzone=21,11 / fast_pskip=1 / chroma_qp_offset=0 / threads=12 / lookahead_threads=3 / sliced_threads=0 / nr=0 / decimate=1 / interlaced=0 / bluray_compat=0 / constrained_intra=0 / bframes=3 / b_pyramid=2 / b_adapt=1 / b_bias=0 / direct=1 / weightb=1 / open_gop=0 / weightp=1 / keyint=300 / keyint_min=30 / scenecut=40 / intra_refresh=0 / rc_lookahead=10 / rc=abr / mbtree=1 / bitrate=1100 / ratetol=1.0 / qcomp=0.60 / qpmin=0 / qpmax=69 / qpstep=4 / vbv_maxrate=20000 / vbv_bufsize=25000 / nal_hrd=none / filler=0 / ip_ratio=1.40 / aq=1:1.00
Color primaries : BT.709
Transfer characteristics : BT.709
Matrix coefficients : BT.709
Audio #2
ID : 2
Format : AAC
Format/Info : Advanced Audio Codec
Format profile : LC
Codec ID : 40
Duration : 2h 24mn
Bit rate mode : Variable
Bit rate : 160 Kbps
Channel(s) : 2 channels
Channel positions : Front: L R
Sampling rate : 48.0 KHz
Compression mode : Lossy
Stream size : 165 MiB (13%)
Title : Stereo
Language : English

Создавать темы 13-Янв-2015 00:57

[Профиль]  [ЛС] 
Показать сообщения:    
Ответить на тему

Текущее время: 20-Ноя 07:22

Часовой пояс: UTC + 5



Вы не можете начинать темы
Вы не можете отвечать на сообщения
Вы не можете редактировать свои сообщения
Вы не можете удалять свои сообщения
Вы не можете голосовать в опросах
Вы не можете прикреплять файлы к сообщениям
Вы не можете скачивать файлы